Deep Purple – In Rock (Limited Remastered Japanese Edition)




No Cover available

Artist: Deep Purple
Year: 1970/2008
Genre: Rock
Notes: Discogs
Add. Notes: Limited Remastered Japanese Edition
Watch Songs on: YouTube
Cover incl.: Yes
Encoder: FLAC
Bitrate: ~900 kBit/s (44.1 kHz/16 Bit/s)
Log & Cue incl.: Yes/Yes
Size: 387 MB
Password: “slam” (without ” “)


All Downloads/Hosters are compatible

Download 1
KatFile.com
Turbobit.net
FileFactory.com
Rapidgator.net
Download 2
KatFile.com
Turbobit.net
FileFactory.com
Rapidgator.net

Tracklist:

1 - Speed King  
2 - Bloodsucker  
3 - Child In Time  
4 - Flight Of The Rat  
5 - Into The Fire  
6 - Living Wreck  
7 - Hard Lovin Man

EAC-Log, CUE-Sheed & NFO:

Click to open spoiler
Exact Audio Copy V1.0 beta 4 from 7. December 2014

EAC extraction logfile from 29. January 2015, 19:49

Deep Purple / Deep Purple In Rock (1996, WPCR-13110)

Used drive : Optiarc BD RW BD-5300S Adapter: 0 ID: 0

Read mode : Secure
Utilize accurate stream : Yes
Defeat audio cache : Yes
Make use of C2 pointers : No

Read offset correction : 6
Overread into Lead-In and Lead-Out : No
Fill up missing offset samples with silence : Yes
Delete leading and trailing silent blocks : No
Null samples used in CRC calculations : Yes
Used interface : Installed external ASPI interface

Used output format : User Defined Encoder
Selected bitrate : 128 kBit/s
Quality : High
Add ID3 tag : Yes
Command line compressor : C:\Program Files (x86)\Exact Audio Copy\Flac\flac.exe
Additional command line options : -V -8 -T “Date=%year%” -T “Genre=%genre%” %source%

TOC of the extracted CD

Track | Start | Length | Start sector | End sector
———————————————————
1 | 0:00.00 | 4:23.22 | 0 | 19746
2 | 4:23.22 | 4:15.45 | 19747 | 38916
3 | 8:38.67 | 10:21.65 | 38917 | 85556
4 | 19:00.57 | 7:57.03 | 85557 | 121334
5 | 26:57.60 | 3:30.00 | 121335 | 137084
6 | 30:27.60 | 4:32.45 | 137085 | 157529
7 | 35:00.30 | 7:12.70 | 157530 | 189999

Range status and errors

Selected range

Filename G:\CD\Deep Purple – In Rock.wav

Peak level 97.7 %
Extraction speed 7.7 X
Range quality 100.0 %
Test CRC 38220E8D
Copy CRC 38220E8D
Copy OK

No errors occurred

AccurateRip summary

Track 1 accurately ripped (confidence 11) [A9BFFE03] (AR v2)
Track 2 accurately ripped (confidence 10) [D23F0A92] (AR v2)
Track 3 accurately ripped (confidence 12) [B6B43EAE] (AR v2)
Track 4 accurately ripped (confidence 11) [E23E2741] (AR v2)
Track 5 accurately ripped (confidence 10) [039C21C4] (AR v2)
Track 6 accurately ripped (confidence 10) [55A534F9] (AR v2)
Track 7 accurately ripped (confidence 10) [0BF21BBD] (AR v2)

All tracks accurately ripped

End of status report

—- CUETools DB Plugin V2.1.4

[CTDB TOCID: cCHlFyeMiRL1VoQUTpYvzlCHwUQ-] found
Submit result: cCHlFyeMiRL1VoQUTpYvzlCHwUQ- has been confirmed
Track | CTDB Status
1 | (7/8) Accurately ripped
2 | (7/8) Accurately ripped
3 | (7/8) Accurately ripped
4 | (7/8) Accurately ripped
5 | (7/8) Accurately ripped
6 | (7/8) Accurately ripped
7 | (7/8) Accurately ripped

==== Log checksum E43DE24200BF5CC104B99EA1532E65D6E15B393FC85F06434872F908CCF474D0 ====

REM GENRE “Hard Rock”
REM DATE 1970
REM DISCID 4809E507
REM COMMENT “ExactAudioCopy v1.0b4”
CATALOG 4943674056354
PERFORMER “Deep Purple”
TITLE “Deep Purple In Rock (2008, SHM-CD, WPCR-13110)”
FILE “Deep Purple – In Rock.flac” WAVE
TRACK 01 AUDIO
TITLE “Speed King”
PERFORMER “Deep Purple”
ISRC USWB10103610
INDEX 01 00:00:00
TRACK 02 AUDIO
TITLE “Bloodsucker”
PERFORMER “Deep Purple”
ISRC USWB10100662
INDEX 00 04:20:05
INDEX 01 04:23:22
TRACK 03 AUDIO
TITLE “Child In Time”
PERFORMER “Deep Purple”
ISRC USWB19903563
INDEX 00 08:35:02
INDEX 01 08:38:67
TRACK 04 AUDIO
TITLE “Flight Of The Rat”
PERFORMER “Deep Purple”
ISRC USWB10100663
INDEX 00 18:57:35
INDEX 01 19:00:57
TRACK 05 AUDIO
TITLE “Into The Fire”
PERFORMER “Deep Purple”
ISRC USWB10100664
INDEX 00 26:54:37
INDEX 01 26:57:60
TRACK 06 AUDIO
TITLE “Living Wreck”
PERFORMER “Deep Purple”
ISRC USWB10100665
INDEX 01 30:27:60
TRACK 07 AUDIO
TITLE “Hard Lovin’ Man”
PERFORMER “Deep Purple”
ISRC USWB10100666
INDEX 00 34:58:47
INDEX 01 35:00:30


Leave a Reply

Your email address will not be published. Required fields are marked *

This site uses Akismet to reduce spam. Learn how your comment data is processed.