Deep Purple – In Rock (Japanese Edition)




Artist: Deep Purple
Year: 1970/1987
Genre: Rock
Notes: Discogs
Add. Notes: Japanese Edition
Cover incl.: Yes
Encoder: FLAC
Bitrate: ~800 kBit/s (44.1 kHz/16 Bit/s)
Log & Cue incl.: Yes
Size: 280 MB
Password: “slam” (without ” “)


All Downloads/Hosters are compatible

Download 1
KatFile.com
Rapidgator.net
Turbobit.net
FileFactory.com
Download 2
KatFile.com
Rapidgator.net
Turbobit.net
FileFactory.com

Tracklist:

1 - Speed King - 4:18
2 - Bloodsucker - 4:12
3 - Child In Time - 10:15
4 - Flight Of The Rat - 7:52
5 - Into The Fire - 3:29
6 - Living Wreck - 4:30
7 - Hard Lovin' Man - 7:10

EAC-Log, CUE-Sheed & NFO:

Click to open spoiler
Exact Audio Copy V1.0 beta 3 from 29. August 2011

EAC extraction logfile from 10. January 2014, 16:24

Deep Purple / (1970) In Rock

Used drive : SONY BD RW BDX-S600U Adapter: 2 ID: 1

Read mode : Secure
Utilize accurate stream : Yes
Defeat audio cache : Yes
Make use of C2 pointers : No

Read offset correction : 48
Overread into Lead-In and Lead-Out : No
Fill up missing offset samples with silence : Yes
Delete leading and trailing silent blocks : No
Null samples used in CRC calculations : Yes
Used interface : Native Win32 interface for Win NT & 2000

Used output format : User Defined Encoder
Selected bitrate : 128 kBit/s
Quality : High
Add ID3 tag : No
Command line compressor : C:\Program Files (x86)\Exact Audio Copy\Flac\flac.exe
Additional command line options : -V -8 -T “Date=%year%” -T “Genre=%genre%” %source%

TOC of the extracted CD

Track | Start | Length | Start sector | End sector
———————————————————
1 | 0:00.00 | 4:24.72 | 0 | 19871
2 | 4:24.72 | 4:16.13 | 19872 | 39084
3 | 8:41.10 | 10:20.25 | 39085 | 85609
4 | 19:01.35 | 7:58.17 | 85610 | 121476
5 | 26:59.52 | 3:30.13 | 121477 | 137239
6 | 30:29.65 | 4:34.60 | 137240 | 157849
7 | 35:04.50 | 7:12.35 | 157850 | 190284

Range status and errors

Selected range

Filename F:\music\1970. Deep Purple – Deep Purple In Rock (Warner-Pioner Corp., 32XD-898,Japan)\Deep Purple – (1970) In Rock.wav

Peak level 100.0 %
Extraction speed 6.2 X
Range quality 99.9 %
Test CRC 723664F9
Copy CRC 723664F9
Copy OK

No errors occurred

AccurateRip summary

Track 1 cannot be verified as accurate (confidence 5) [A35A3D40], AccurateRip returned [E3684C47] (AR v2)
Track 2 cannot be verified as accurate (confidence 4) [88205C02], AccurateRip returned [CCF88C0C] (AR v2)
Track 3 cannot be verified as accurate (confidence 5) [628F037E], AccurateRip returned [52446195] (AR v2)
Track 4 cannot be verified as accurate (confidence 5) [71BC7C67], AccurateRip returned [D922B5A9] (AR v2)
Track 5 cannot be verified as accurate (confidence 5) [BBACF14F], AccurateRip returned [E069D043] (AR v2)
Track 6 cannot be verified as accurate (confidence 5) [7F8ECD8F], AccurateRip returned [88298994] (AR v2)
Track 7 cannot be verified as accurate (confidence 5) [13075C49], AccurateRip returned [1F18BB65] (AR v2)

No tracks could be verified as accurate
You may have a different pressing from the one(s) in the database

End of status report

—- CUETools DB Plugin V2.1.3

[CTDB TOCID: IcPaSr0lKcbbN8Q9dAd_sKUyBxQ-] found, Submit result: IcPaSr0lKcbbN8Q9dAd_sKUyBxQ- has been confirmed
[6594c65d] (5/5) Accurately ripped

==== Log checksum 88011EDD6F7CD38144F7EDB76A2721CB7CED304C287841BB8F1DCD1082E1BAEC ====

REM GENRE “Hard Rock”
REM DATE 1970
REM DISCID 4309E907
REM COMMENT “ExactAudioCopy v1.0b3”
PERFORMER “Deep Purple”
TITLE “Deep Purple In Rock (1987, 32XD-898)”
FILE “Deep Purple – (1970) In Rock.flac” WAVE
TRACK 01 AUDIO
TITLE “Speed King”
PERFORMER “Deep Purple”
INDEX 01 00:00:00
TRACK 02 AUDIO
TITLE “Bloodsucker”
PERFORMER “Deep Purple”
INDEX 00 04:20:65
INDEX 01 04:24:72
TRACK 03 AUDIO
TITLE “Child In Time”
PERFORMER “Deep Purple”
INDEX 00 08:36:37
INDEX 01 08:41:10
TRACK 04 AUDIO
TITLE “Flight Of The Rat”
PERFORMER “Deep Purple”
INDEX 00 18:59:60
INDEX 01 19:01:35
TRACK 05 AUDIO
TITLE “Into The Fire”
PERFORMER “Deep Purple”
INDEX 00 26:56:07
INDEX 01 26:59:52
TRACK 06 AUDIO
TITLE “Living Wreck”
PERFORMER “Deep Purple”
INDEX 01 30:29:65
TRACK 07 AUDIO
TITLE “Hard Lovin’ Man”
PERFORMER “Deep Purple”
INDEX 00 35:01:70
INDEX 01 35:04:50


Leave a Reply

Your email address will not be published. Required fields are marked *

Enter the text from the image below
 

This site uses Akismet to reduce spam. Learn how your comment data is processed.