Deep Purple – In Concert With The London Symphony Orchestra




No Cover available

Artist: Deep Purple
Year: 1999
Genre: Rock
Notes: Discogs
Add. Notes:
Watch Songs on: YouTube
Cover incl.: Yes
Encoder: FLAC
Bitrate: ~900 kBit/s (44.1 kHz/16 Bit/s)
Log & Cue incl.: Yes/Yes
Size: 905 MB
Password: “slam” (without ” “)


All Downloads/Hosters are compatible

Download 1
KatFile.com
Turbobit.net
FileFactory.com
Rapidgator.net
Download 2
KatFile.com
Turbobit.net
FileFactory.com
Rapidgator.net

Tracklist:

1-1 Pictured Within 8:38
1-2 Wait A While 6:44
1-3 Sitting In A Dream 4:01
1-4 Love Is All 4:40
1-5 Via Miami 4:51
1-6 That's Why God Is Singing The Blues 4:02
1-7 Take It Off The Top 4:43
1-8 Wring That Neck 4:38
1-9 Pictures Of Home 9:28

2-1 Concerto For Group And Orchestra - Movement I 
17:04
2-2 Concerto For Group And Orchestra - Movement II 
19:43
2-3 Concerto For Group And Orchestra - Movement III 
13:28
2-4 Ted The Mechanic 4:05
2-5 Watching The Sky 5:38
2-6 Sometimes I Feel Like Screaming 7:44
2-7 Smoke On The Water 6:44

EAC-Log, CUE-Sheed & NFO:

Click to open spoiler
Exact Audio Copy V1.0 beta 3 from 29. August 2011

EAC extraction logfile from 17. August 2013, 13:20

Deep Purple / In Concert With The London Symphony Orchestra CD1

Used drive : ATAPI iHAS124 B Adapter: 2 ID: 0

Read mode : Secure
Utilize accurate stream : Yes
Defeat audio cache : Yes
Make use of C2 pointers : No

Read offset correction : 6
Overread into Lead-In and Lead-Out : No
Fill up missing offset samples with silence : Yes
Delete leading and trailing silent blocks : No
Null samples used in CRC calculations : Yes
Used interface : Native Win32 interface for Win NT & 2000

Used output format : User Defined Encoder
Selected bitrate : 1024 kBit/s
Quality : High
Add ID3 tag : No
Command line compressor : C:\Program Files (x86)\Exact Audio Copy\FLAC\FLAC.EXE
Additional command line options : -8 -V -T “ARTIST=%artist%” -T “TITLE=%title%” -T “ALBUM=%albumtitle%” -T “DATE=%year%” -T “TRACKNUMBER=%tracknr%” -T “GENRE=%genre%” -T “PERFORMER=%albuminterpret%” -T “COMPOSER=%composer%” %haslyrics%–tag-from-file=LYRICS=”%lyricsfile%”%haslyrics% -T “ALBUMARTIST=%albumartist%” -T “DISCNUMBER=%cdnumber%” -T “TOTALDISCS=%totalcds%” -T “TOTALTRACKS=%numtracks%” -T “COMMENT=%comment%” %source% -o %dest%

TOC of the extracted CD

Track | Start | Length | Start sector | End sector
———————————————————
1 | 0:00.00 | 8:38.05 | 0 | 38854
2 | 8:38.05 | 6:44.27 | 38855 | 69181
3 | 15:22.32 | 4:01.25 | 69182 | 87281
4 | 19:23.57 | 4:40.09 | 87282 | 108290
5 | 24:03.66 | 4:51.44 | 108291 | 130159
6 | 28:55.35 | 4:02.53 | 130160 | 148362
7 | 32:58.13 | 4:43.08 | 148363 | 169595
8 | 37:41.21 | 4:38.13 | 169596 | 190458
9 | 42:19.34 | 9:26.19 | 190459 | 232927
10 | 54:17.53 | 12:08.28 | 244328 | 298955

Range status and errors

Selected range

Filename G:\CD\Deep Purple – In Concert With The London Symphony Orchestra CD1.wav

Peak level 100.0 %
Extraction speed 6.1 X
Range quality 100.0 %
Test CRC 0871AF91
Copy CRC 0871AF91
Copy OK

No errors occurred

AccurateRip summary

Track 1 accurately ripped (confidence 8) [B6F45B1C] (AR v2)
Track 2 accurately ripped (confidence 8) [B47894B8] (AR v2)
Track 3 accurately ripped (confidence 8) [EAFFF496] (AR v2)
Track 4 accurately ripped (confidence 8) [E8623281] (AR v2)
Track 5 accurately ripped (confidence 8) [A10E9B6C] (AR v2)
Track 6 accurately ripped (confidence 8) [05C41C42] (AR v2)
Track 7 accurately ripped (confidence 8) [70C63DF8] (AR v2)
Track 8 accurately ripped (confidence 8) [6FADCC26] (AR v2)
Track 9 accurately ripped (confidence 8) [80D987DF] (AR v2)

All tracks accurately ripped

End of status report

==== Log checksum D347DBAE8DCD83D553F39D99B933F9C3FA92E37286C351BAC35F1E6F4387B651 ====

Exact Audio Copy V1.0 beta 3 from 29. August 2011

EAC extraction logfile from 17. August 2013, 14:04

Deep Purple / In Concert With The London Symphony Orchestra CD2

Used drive : ATAPI iHAS124 B Adapter: 2 ID: 0

Read mode : Secure
Utilize accurate stream : Yes
Defeat audio cache : Yes
Make use of C2 pointers : No

Read offset correction : 6
Overread into Lead-In and Lead-Out : No
Fill up missing offset samples with silence : Yes
Delete leading and trailing silent blocks : No
Null samples used in CRC calculations : Yes
Used interface : Native Win32 interface for Win NT & 2000

Used output format : User Defined Encoder
Selected bitrate : 1024 kBit/s
Quality : High
Add ID3 tag : No
Command line compressor : C:\Program Files (x86)\Exact Audio Copy\FLAC\FLAC.EXE
Additional command line options : -8 -V -T “ARTIST=%artist%” -T “TITLE=%title%” -T “ALBUM=%albumtitle%” -T “DATE=%year%” -T “TRACKNUMBER=%tracknr%” -T “GENRE=%genre%” -T “PERFORMER=%albuminterpret%” -T “COMPOSER=%composer%” %haslyrics%–tag-from-file=LYRICS=”%lyricsfile%”%haslyrics% -T “ALBUMARTIST=%albumartist%” -T “DISCNUMBER=%cdnumber%” -T “TOTALDISCS=%totalcds%” -T “TOTALTRACKS=%numtracks%” -T “COMMENT=%comment%” %source% -o %dest%

TOC of the extracted CD

Track | Start | Length | Start sector | End sector
———————————————————
1 | 0:00.00 | 17:04.62 | 0 | 76861
2 | 17:04.62 | 19:43.65 | 76862 | 165651
3 | 36:48.52 | 13:28.37 | 165652 | 226288
4 | 50:17.14 | 4:50.68 | 226289 | 248106
5 | 55:08.07 | 5:38.51 | 248107 | 273507
6 | 60:46.58 | 7:44.24 | 273508 | 308331
7 | 68:31.07 | 6:44.50 | 308332 | 338681

Range status and errors

Selected range

Filename G:\CD\Deep Purple – In Concert With The London Symphony Orchestra CD2.wav

Peak level 100.0 %
Extraction speed 6.7 X
Range quality 100.0 %
Test CRC 07CF7D08
Copy CRC 07CF7D08
Copy OK

No errors occurred

AccurateRip summary

Track 1 accurately ripped (confidence 8) [37C08671] (AR v2)
Track 2 accurately ripped (confidence 8) [C1AD5512] (AR v2)
Track 3 accurately ripped (confidence 8) [2C843793] (AR v2)
Track 4 accurately ripped (confidence 8) [88CF860D] (AR v2)
Track 5 accurately ripped (confidence 8) [0BF5FFB2] (AR v2)
Track 6 accurately ripped (confidence 8) [62904B6E] (AR v2)
Track 7 accurately ripped (confidence 8) [59D5BDE9] (AR v2)

All tracks accurately ripped

End of status report

==== Log checksum 5D2EBEA18B19C26107C4ACA4B849669270BCE554AF946D8B4955E2F3E67202ED ====

REM GENRE “Symphonic Rock”
REM DATE 1999
REM DISCID 830F920A
REM COMMENT “ExactAudioCopy v1.0b3”
PERFORMER “Deep Purple”
TITLE “In Concert With The London Symphony Orchestra CD1 (1999, 2CD, EAGCD124)”
FILE “Deep Purple – In Concert With The London Symphony Orchestra CD1.flac” WAVE
TRACK 01 AUDIO
TITLE “Pictured Within”
PERFORMER “Deep Purple”
ISRC GBCBR9900418
INDEX 01 00:00:00
TRACK 02 AUDIO
TITLE “Wait A While”
PERFORMER “Deep Purple”
ISRC GBCBR9900419
INDEX 01 08:38:05
TRACK 03 AUDIO
TITLE “Sitting In A Dream”
PERFORMER “Deep Purple”
ISRC GBCBR9900420
INDEX 01 15:22:32
TRACK 04 AUDIO
TITLE “Love Is All”
PERFORMER “Deep Purple”
ISRC GBCBR9900421
INDEX 01 19:23:57
TRACK 05 AUDIO
TITLE “Via Miami”
PERFORMER “Deep Purple”
ISRC GBCBR9900422
INDEX 01 24:03:66
TRACK 06 AUDIO
TITLE “That’s Why God Is Singing The Blues”
PERFORMER “Deep Purple”
ISRC GBCBR9900423
INDEX 01 28:55:35
TRACK 07 AUDIO
TITLE “Take It Off The Top”
PERFORMER “Deep Purple”
ISRC GBCBR9900424
INDEX 01 32:58:13
TRACK 08 AUDIO
TITLE “Wring That Neck”
PERFORMER “Deep Purple”
ISRC GBCBR9900425
INDEX 01 37:41:21
TRACK 09 AUDIO
TITLE “Pictures Of Home”
PERFORMER “Deep Purple”
ISRC GBCBR9900426
INDEX 01 42:19:34

REM GENRE “Symphonic Rock”
REM DATE 1999
REM DISCID 4211A307
REM COMMENT “ExactAudioCopy v1.0b3”
PERFORMER “Deep Purple”
TITLE “In Concert With The London Symphony Orchestra CD2 (1999, 2CD, EAGCD124)”
FILE “Deep Purple – In Concert With The London Symphony Orchestra CD2.flac” WAVE
TRACK 01 AUDIO
TITLE “Concerto For Group And Orchestra – Movement I”
PERFORMER “Deep Purple”
ISRC GBCBR9900427
INDEX 01 00:00:00
TRACK 02 AUDIO
TITLE “Concerto For Group And Orchestra – Movement II”
PERFORMER “Deep Purple”
ISRC GBCBR9900446
INDEX 01 17:04:62
TRACK 03 AUDIO
TITLE “Concerto For Group And Orchestra – Movement III”
PERFORMER “Deep Purple”
ISRC GBCBR9900447
INDEX 01 36:48:52
TRACK 04 AUDIO
TITLE “Ted The Mechanic”
PERFORMER “Deep Purple”
ISRC GBCBR9900428
INDEX 01 50:17:14
TRACK 05 AUDIO
TITLE “Watching The Sky”
PERFORMER “Deep Purple”
ISRC GBCBR9900429
INDEX 01 55:08:07
TRACK 06 AUDIO
TITLE “Sometimes I Feel Like Screaming”
PERFORMER “Deep Purple”
ISRC GBCBR9900430
INDEX 01 60:46:58
TRACK 07 AUDIO
TITLE “Smoke On The Water”
PERFORMER “Deep Purple”
ISRC GBCBR9900431
INDEX 01 68:31:07


Leave a Reply

Your email address will not be published. Required fields are marked *

This site uses Akismet to reduce spam. Learn how your comment data is processed.