Deep Purple – In Concert (Reissue)




[Total: 0    Average: 0/5]

Artist: Deep Purple
Year: 1980/1992
Genre: Rock
Notes: Discogs
Add. Notes: Reissue
Cover incl.: Yes
Encoder: FLAC
Bitrate: ~800 kBit/s (44.1 kHz/16 Bit/s)
Log & Cue incl.: Yes
Size: 827 MB
Password: “slam” (without ” “)


All Downloads/Hosters are compatible

Download 1
Share-online.biz
KatFile.com
Rapidgator.net
Mexa.sh
Download 2
Share-online.biz
KatFile.com
Rapidgator.net
Mexa.sh

Tracklist:

CD 1: 1970 - Everything Louder Than 
Everything Else!
1-1 - Speed King - 7:22
1-2 - Child In Time - 11:07
1-3 - Wring That Neck - 19:00
1-4 - Mandrake Root - 17:38
CD 2: 1972 - Here's A Bit Of 
Boogaloo!
2-1 - Highway Star - 8:32
2-2 - Strange Kind Of Woman - 9:17
2-3 - Maybe I'm A Leo - 6:18
2-4 - Never Before - 4:35
2-5 - Lazy - 10:22
2-6 - Space Truckin' - 21:46
2-7 - Smoke On The Water - 7:09
2-8 - Lucille - 7:21

EAC-Log, CUE-Sheed & NFO:

Click to open spoiler
Exact Audio Copy V1.0 beta 3 from 29. August 2011

EAC extraction logfile from 26. July 2013, 8:51

Deep Purple / In Concert (1970 – 1972) CD1

Used drive : ATAPI iHAS124 B Adapter: 2 ID: 0

Read mode : Secure
Utilize accurate stream : Yes
Defeat audio cache : Yes
Make use of C2 pointers : No

Read offset correction : 6
Overread into Lead-In and Lead-Out : No
Fill up missing offset samples with silence : Yes
Delete leading and trailing silent blocks : No
Null samples used in CRC calculations : Yes
Used interface : Native Win32 interface for Win NT & 2000

Used output format : User Defined Encoder
Selected bitrate : 1024 kBit/s
Quality : High
Add ID3 tag : No
Command line compressor : C:\Program Files (x86)\Exact Audio Copy\FLAC\FLAC.EXE
Additional command line options : -8 -V -T “ARTIST=%artist%” -T “TITLE=%title%” -T “ALBUM=%albumtitle%” -T “DATE=%year%” -T “TRACKNUMBER=%tracknr%” -T “GENRE=%genre%” -T “PERFORMER=%albuminterpret%” -T “COMPOSER=%composer%” %haslyrics%–tag-from-file=LYRICS=”%lyricsfile%”%haslyrics% -T “ALBUMARTIST=%albumartist%” -T “DISCNUMBER=%cdnumber%” -T “TOTALDISCS=%totalcds%” -T “TOTALTRACKS=%numtracks%” -T “COMMENT=%comment%” %source% -o %dest%

TOC of the extracted CD

Track | Start | Length | Start sector | End sector
———————————————————
1 | 0:00.33 | 7:22.37 | 33 | 33219
2 | 7:22.70 | 11:06.70 | 33220 | 83239
3 | 18:29.65 | 18:59.63 | 83240 | 168727
4 | 37:29.53 | 17:38.15 | 168728 | 248092

Range status and errors

Selected range

Filename G:\CD\Deep Purple – In Concert (1970 – 1972) CD1.wav

Peak level 100.0 %
Extraction speed 5.7 X
Range quality 100.0 %
Test CRC 4C519B86
Copy CRC 4C519B86
Copy OK

No errors occurred

AccurateRip summary

Track 1 accurately ripped (confidence 6) [C79EC684] (AR v2)
Track 2 accurately ripped (confidence 6) [3B73530A] (AR v2)
Track 3 accurately ripped (confidence 6) [0F9C3282] (AR v2)
Track 4 accurately ripped (confidence 6) [B7EB63E5] (AR v2)

All tracks accurately ripped

End of status report

==== Log checksum 9A2797CBF8BA6AFA946CC1AB27F4495D4C40ABE84577CA8D1065874BA196BAFE ====

Exact Audio Copy V1.0 beta 3 from 29. August 2011

EAC extraction logfile from 26. July 2013, 9:24

Deep Purple / In Concert (1970 – 1972) CD2

Used drive : ATAPI iHAS124 B Adapter: 2 ID: 0

Read mode : Secure
Utilize accurate stream : Yes
Defeat audio cache : Yes
Make use of C2 pointers : No

Read offset correction : 6
Overread into Lead-In and Lead-Out : No
Fill up missing offset samples with silence : Yes
Delete leading and trailing silent blocks : No
Null samples used in CRC calculations : Yes
Used interface : Native Win32 interface for Win NT & 2000

Used output format : User Defined Encoder
Selected bitrate : 1024 kBit/s
Quality : High
Add ID3 tag : No
Command line compressor : C:\Program Files (x86)\Exact Audio Copy\FLAC\FLAC.EXE
Additional command line options : -8 -V -T “ARTIST=%artist%” -T “TITLE=%title%” -T “ALBUM=%albumtitle%” -T “DATE=%year%” -T “TRACKNUMBER=%tracknr%” -T “GENRE=%genre%” -T “PERFORMER=%albuminterpret%” -T “COMPOSER=%composer%” %haslyrics%–tag-from-file=LYRICS=”%lyricsfile%”%haslyrics% -T “ALBUMARTIST=%albumartist%” -T “DISCNUMBER=%cdnumber%” -T “TOTALDISCS=%totalcds%” -T “TOTALTRACKS=%numtracks%” -T “COMMENT=%comment%” %source% -o %dest%

TOC of the extracted CD

Track | Start | Length | Start sector | End sector
———————————————————
1 | 0:00.33 | 8:32.17 | 33 | 38449
2 | 8:32.50 | 9:17.35 | 38450 | 80259
3 | 17:50.10 | 6:17.65 | 80260 | 108599
4 | 24:08.00 | 4:34.50 | 108600 | 129199
5 | 28:42.50 | 10:22.03 | 129200 | 175852
6 | 39:04.53 | 21:46.20 | 175853 | 273822
7 | 60:50.73 | 7:09.00 | 273823 | 305997
8 | 67:59.73 | 7:21.05 | 305998 | 339077

Range status and errors

Selected range

Filename G:\CD\Deep Purple – In Concert (1970 – 1972) CD2.wav

Peak level 98.6 %
Extraction speed 6.6 X
Range quality 100.0 %
Test CRC 9FB56645
Copy CRC 9FB56645
Copy OK

No errors occurred

AccurateRip summary

Track 1 accurately ripped (confidence 2) [58AB513D] (AR v2)
Track 2 accurately ripped (confidence 2) [6C737FF3] (AR v2)
Track 3 accurately ripped (confidence 2) [D6B0F588] (AR v2)
Track 4 accurately ripped (confidence 2) [4ABCFB2B] (AR v2)
Track 5 accurately ripped (confidence 2) [C157AC4F] (AR v2)
Track 6 accurately ripped (confidence 2) [B26FAA60] (AR v2)
Track 7 accurately ripped (confidence 2) [617BD1BD] (AR v2)
Track 8 accurately ripped (confidence 2) [3C49CE86] (AR v2)

All tracks accurately ripped

End of status report

==== Log checksum 60A585AFF5FBF0A12F9010980FED0EF5E44295BC73CE0D36DAC975477283D793 ====

REM GENRE “Hard Rock”
REM DATE 1980
REM DISCID 1C0CEB04
REM COMMENT “ExactAudioCopy v1.0b3”
PERFORMER “Deep Purple”
TITLE “In Concert (1970 – 1972) CD1 (1992, 2CD, CDS7981812)”
FILE “Deep Purple – In Concert (1970 – 1972) CD1.flac” WAVE
TRACK 01 AUDIO
TITLE “Speed King”
PERFORMER “Deep Purple”
INDEX 00 00:00:00
INDEX 01 00:00:33
TRACK 02 AUDIO
TITLE “Child In Time”
PERFORMER “Deep Purple”
INDEX 01 07:22:70
TRACK 03 AUDIO
TITLE “Wring That Neck”
PERFORMER “Deep Purple”
INDEX 00 18:29:63
INDEX 01 18:29:65
TRACK 04 AUDIO
TITLE “Mandrake Root”
PERFORMER “Deep Purple”
INDEX 01 37:29:53

REM GENRE “Hard Rock”
REM DATE 1980
REM DISCID 5A11A908
REM COMMENT “ExactAudioCopy v1.0b3”
PERFORMER “Deep Purple”
TITLE “In Concert (1970 – 1972) CD2 (1992, 2CD, CDS7981812)”
FILE “Deep Purple – In Concert (1970 – 1972) CD2.flac” WAVE
TRACK 01 AUDIO
TITLE “Highway Star”
PERFORMER “Deep Purple”
INDEX 00 00:00:00
INDEX 01 00:00:33
TRACK 02 AUDIO
TITLE “Strange Kind Of Woman”
PERFORMER “Deep Purple”
INDEX 00 08:32:48
INDEX 01 08:32:50
TRACK 03 AUDIO
TITLE “Maybe I’m A Leo”
PERFORMER “Deep Purple”
INDEX 00 17:50:08
INDEX 01 17:50:10
TRACK 04 AUDIO
TITLE “Never Before”
PERFORMER “Deep Purple”
INDEX 00 24:07:73
INDEX 01 24:08:00
TRACK 05 AUDIO
TITLE “Lazy”
PERFORMER “Deep Purple”
INDEX 00 28:42:48
INDEX 01 28:42:50
TRACK 06 AUDIO
TITLE “Space Truckin'”
PERFORMER “Deep Purple”
INDEX 00 39:04:50
INDEX 01 39:04:53
TRACK 07 AUDIO
TITLE “Smoke On The Water”
PERFORMER “Deep Purple”
INDEX 00 60:50:70
INDEX 01 60:50:73
TRACK 08 AUDIO
TITLE “Lucille”
PERFORMER “Deep Purple”
INDEX 00 67:59:70
INDEX 01 67:59:73


Spread the Download

Leave a Reply

Your email address will not be published. Required fields are marked *

Enter the text from the image below
 

This site uses Akismet to reduce spam. Learn how your comment data is processed.