Deep Purple – Gemini Suite Live (Remastered)




Artist: Deep Purple
Year: 1993/2006
Genre: Rock
Notes: Discogs
Add. Notes: Remastered
Cover incl.: Yes
Encoder: FLAC
Bitrate: ~700 kBit/s (44.1 kHz/16 Bit/s)
Log & Cue incl.: Yes
Size: 262,2 MB
Password: “slam” (without ” “)


All Downloads/Hosters are compatible

Download 1
KatFile.com
Turbobit.net
FileFactory.com
Rapidgator.net
Download 2
KatFile.com
Turbobit.net
FileFactory.com
Rapidgator.net

Tracklist:

1 First Movement 17:23
2 Second Movement 10:18
3 Third Movement 16:52

EAC-Log, CUE-Sheed & NFO:

Click to open spoiler
Exact Audio Copy V1.0 beta 3 from 29. August 2011

EAC extraction logfile from 25. July 2013, 22:20

Deep Purple / Gemini Suite Live

Used drive : ATAPI iHAS124 B Adapter: 2 ID: 0

Read mode : Secure
Utilize accurate stream : Yes
Defeat audio cache : Yes
Make use of C2 pointers : No

Read offset correction : 6
Overread into Lead-In and Lead-Out : No
Fill up missing offset samples with silence : Yes
Delete leading and trailing silent blocks : No
Null samples used in CRC calculations : Yes
Used interface : Native Win32 interface for Win NT & 2000

Used output format : User Defined Encoder
Selected bitrate : 1024 kBit/s
Quality : High
Add ID3 tag : No
Command line compressor : C:\Program Files (x86)\Exact Audio Copy\FLAC\FLAC.EXE
Additional command line options : -8 -V -T “ARTIST=%artist%” -T “TITLE=%title%” -T “ALBUM=%albumtitle%” -T “DATE=%year%” -T “TRACKNUMBER=%tracknr%” -T “GENRE=%genre%” -T “PERFORMER=%albuminterpret%” -T “COMPOSER=%composer%” %haslyrics%–tag-from-file=LYRICS=”%lyricsfile%”%haslyrics% -T “ALBUMARTIST=%albumartist%” -T “DISCNUMBER=%cdnumber%” -T “TOTALDISCS=%totalcds%” -T “TOTALTRACKS=%numtracks%” -T “COMMENT=%comment%” %source% -o %dest%

TOC of the extracted CD

Track | Start | Length | Start sector | End sector
———————————————————
1 | 0:00.00 | 17:23.00 | 0 | 78224
2 | 17:23.00 | 10:18.62 | 78225 | 124636
3 | 27:41.62 | 16:52.13 | 124637 | 200549

Range status and errors

Selected range

Filename G:\CD\Deep Purple – Gemini Suite Live.wav

Peak level 94.9 %
Extraction speed 2.9 X
Range quality 100.0 %
Test CRC 1D0BF663
Copy CRC 1D0BF663
Copy OK

No errors occurred

AccurateRip summary

Track 1 cannot be verified as accurate (confidence 6) [78A559B4], AccurateRip returned [57B21C80] (AR v2)
Track 2 cannot be verified as accurate (confidence 6) [FA9F4BBD], AccurateRip returned [447A94A7] (AR v2)
Track 3 cannot be verified as accurate (confidence 6) [2196475D], AccurateRip returned [3E667A41] (AR v2)

No tracks could be verified as accurate
You may have a different pressing from the one(s) in the database

End of status report

==== Log checksum BADDB989815F7D7DD49A8AF2C12BDACB4DDAA8C1FA26A7B42E6EC79B8360A8FF ====

REM GENRE “Hard Rock, Classical”
REM DATE 1993
REM DISCID 1C0A7203
REM COMMENT “ExactAudioCopy v1.0b3”
PERFORMER “Deep Purple”
TITLE “Gemini Suite Live (2006, PUR304)”
FILE “Deep Purple – Gemini Suite Live.flac” WAVE
TRACK 01 AUDIO
TITLE “First Movement”
PERFORMER “Deep Purple”
INDEX 01 00:00:00
TRACK 02 AUDIO
TITLE “Second Movement”
PERFORMER “Deep Purple”
INDEX 01 17:23:00
TRACK 03 AUDIO
TITLE “Third Movement”
PERFORMER “Deep Purple”
INDEX 01 27:41:62


Leave a Reply

Your email address will not be published. Required fields are marked *

Enter the text from the image below
 

This site uses Akismet to reduce spam. Learn how your comment data is processed.