Deep Purple – Fireball




Artist: Deep Purple
Year: 1971/1986
Genre: Rock
Notes: Discogs
Add. Notes:
Cover incl.: Yes
Encoder: FLAC
Bitrate: ~800 kBit/s (44.1 kHz/16 Bit/s)
Log & Cue incl.: Yes
Size: 247 MB
Password: “slam” (without ” “)


All Downloads/Hosters are compatible

Download 1
KatFile.com
Rapidgator.net
Turbobit.net
FileFactory.com
Download 2
KatFile.com
Rapidgator.net
Turbobit.net
FileFactory.com

Tracklist:

1 - Fireball - 3:22
2 - No No No - 6:52
3 - Demon's Eye - 5:16
4 - Anyone's Daughter - 4:40
5 - The Mule - 5:19
6 - Fools - 8:16
7 - No One Came - 6:24

EAC-Log, CUE-Sheed & NFO:

Click to open spoiler
Exact Audio Copy V1.0 beta 3 from 29. August 2011

Отчёт EAC об извлечении, выполненном 3. сентября 2013, 20:49

Deep Purple / Fireball

Дисковод: SONY CD-RW CRX230ED Adapter: 0 ID: 1

Режим чтения : Достоверность
Использование точного потока : Да
Отключение кэша аудио : Да
Использование указателей C2 : Нет

Коррекция смещения при чтении : 6
Способность читать области Lead-in и Lead-out : Нет
Заполнение пропущенных сэмплов тишиной : Да
Удаление блоков с тишиной в начале и конце : Нет
При вычислениях CRC использовались нулевые сэмплы : Да
Интерфейс : Установленный внешний ASPI-интерфейс

Выходной формат : Внутренние WAV-операции
Формат сэмплов : 44.100 Гц; 16 бит; стерео

TOC извлечённого CD

Трек | Старт | Длительность | Начальный сектор | Конечный сектор
———————————————————————
1 | 0:00.32 | 3:23.68 | 32 | 15324
2 | 3:24.25 | 6:53.67 | 15325 | 46366
3 | 10:18.17 | 5:18.55 | 46367 | 70271
4 | 15:36.72 | 4:41.63 | 70272 | 91409
5 | 20:18.60 | 5:20.67 | 91410 | 115476
6 | 25:39.52 | 8:17.73 | 115477 | 152824
7 | 33:57.50 | 6:24.17 | 152825 | 181641

Характеристики диапазона извлечения и сообщения об ошибках

Выбранный диапазон

Имя файла E:\MusicCD\Deep Purple – Fireball\Deep Purple – Fireball.wav

Пиковый уровень 100.0 %
Скорость извлечения 7.2 X
Качество диапазона 100.0 %
CRC теста 08B1884F
CRC копии 08B1884F
Копирование… OK

Ошибок не произошло

AccurateRip: сводка

Трек 1 : извлечено точно (доверие 14) [A0763824] (AR v2)
Трек 2 : извлечено точно (доверие 14) [C369E10C] (AR v2)
Трек 3 : извлечено точно (доверие 14) [C9B20D88] (AR v2)
Трек 4 : извлечено точно (доверие 14) [39A8AFF3] (AR v2)
Трек 5 : извлечено точно (доверие 14) [425ACEF1] (AR v2)
Трек 6 : извлечено точно (доверие 14) [6A340B75] (AR v2)
Трек 7 : извлечено точно (доверие 13) [9B636784] (AR v2)

Все треки извлечены точно

Конец отчёта

==== Контрольная сумма отчёта 694BAF173081ED23B37091792DDFD156CF00A9281AA501BB65BA61ABE5183BE5 ====

REM GENRE “Hard Rock”
REM DATE 1971
REM DISCID 44097507
REM COMMENT “ExactAudioCopy v1.0b3”
PERFORMER “Deep Purple”
TITLE “Fireball (1986, CDP 7 46240 2)”
FILE “Deep Purple – Fireball.flac” WAVE
TRACK 01 AUDIO
TITLE “Fireball”
PERFORMER “Deep Purple”
INDEX 00 00:00:00
INDEX 01 00:00:32
TRACK 02 AUDIO
TITLE “No No No”
PERFORMER “Deep Purple”
INDEX 00 03:22:70
INDEX 01 03:24:25
TRACK 03 AUDIO
TITLE “Demon’s Eye”
PERFORMER “Deep Purple”
INDEX 00 10:16:62
INDEX 01 10:18:17
TRACK 04 AUDIO
TITLE “Anyone’s Daughter”
PERFORMER “Deep Purple”
INDEX 00 15:35:15
INDEX 01 15:36:72
TRACK 05 AUDIO
TITLE “The Mule”
PERFORMER “Deep Purple”
INDEX 00 20:17:42
INDEX 01 20:18:60
TRACK 06 AUDIO
TITLE “Fools”
PERFORMER “Deep Purple”
INDEX 00 25:38:07
INDEX 01 25:39:52
TRACK 07 AUDIO
TITLE “No One Came”
PERFORMER “Deep Purple”
INDEX 00 33:55:72
INDEX 01 33:57:50


Leave a Reply

Your email address will not be published. Required fields are marked *

Enter the text from the image below
 

This site uses Akismet to reduce spam. Learn how your comment data is processed.