Deep Purple – Fireball (Limited Remastered Japanese Edition)




No Cover available

Artist: Deep Purple
Year: 1971/2008
Genre: Rock
Notes: Discogs
Add. Notes: Limited Remastered Japanese Edition
Watch Songs on: YouTube
Cover incl.: Yes
Encoder: FLAC
Bitrate: ~900 kBit/s (44.1 kHz/16 Bit/s)
Log & Cue incl.: Yes
Size: 313,7 MB
Password: “slam” (without ” “)


All Downloads/Hosters are compatible

Download 1
KatFile.com
Turbobit.net
FileFactory.com
Rapidgator.net
Download 2
KatFile.com
Turbobit.net
FileFactory.com
Rapidgator.net

Tracklist:

1 - Fireball - 3:21
2 - No No No - 6:40
3 - Strange Kind Of Woman - 4:04
4 - Anyones Daughter - 4:39
5 - The Mule - 5:16
6 - Fools - 8:15
7 - No One Came - 6:25

EAC-Log, CUE-Sheed & NFO:

Click to open spoiler
Exact Audio Copy V1.0 beta 4 from 7. December 2014

EAC extraction logfile from 29. January 2015, 19:49

Deep Purple / Fireball (1996, WPCR-13111)

Used drive : ATAPI iHAS124 B Adapter: 1 ID: 0

Read mode : Secure
Utilize accurate stream : Yes
Defeat audio cache : Yes
Make use of C2 pointers : No

Read offset correction : 6
Overread into Lead-In and Lead-Out : No
Fill up missing offset samples with silence : Yes
Delete leading and trailing silent blocks : No
Null samples used in CRC calculations : Yes
Used interface : Installed external ASPI interface

Used output format : User Defined Encoder
Selected bitrate : 128 kBit/s
Quality : High
Add ID3 tag : Yes
Command line compressor : C:\Program Files (x86)\Exact Audio Copy\Flac\flac.exe
Additional command line options : -V -8 -T “Date=%year%” -T “Genre=%genre%” %source%

TOC of the extracted CD

Track | Start | Length | Start sector | End sector
———————————————————
1 | 0:00.00 | 3:24.20 | 0 | 15319
2 | 3:24.20 | 6:53.70 | 15320 | 46364
3 | 10:18.15 | 4:05.65 | 46365 | 64804
4 | 14:24.05 | 4:45.20 | 64805 | 86199
5 | 19:09.25 | 5:20.60 | 86200 | 110259
6 | 24:30.10 | 8:18.60 | 110260 | 147669
7 | 32:48.70 | 6:23.57 | 147670 | 176451

Range status and errors

Selected range

Filename G:\CD\Deep Purple – Fireball.wav

Peak level 100.0 %
Extraction speed 2.8 X
Range quality 100.0 %
Test CRC D324F531
Copy CRC D324F531
Copy OK

No errors occurred

AccurateRip summary

Track 1 accurately ripped (confidence 9) [CE0E4031] (AR v2)
Track 2 accurately ripped (confidence 9) [2910F87C] (AR v2)
Track 3 accurately ripped (confidence 9) [BC2BD1B0] (AR v2)
Track 4 accurately ripped (confidence 9) [5D0D9DD2] (AR v2)
Track 5 accurately ripped (confidence 9) [FDAB9838] (AR v2)
Track 6 accurately ripped (confidence 8) [2831DD79] (AR v2)
Track 7 accurately ripped (confidence 8) [3412465D] (AR v2)

All tracks accurately ripped

End of status report

—- CUETools DB Plugin V2.1.4

[CTDB TOCID: ZqahwCGa9rJi6KGvFRzWnQX1IAk-] found
Submit result: ZqahwCGa9rJi6KGvFRzWnQX1IAk- has been confirmed
Track | CTDB Status
1 | (9/9) Accurately ripped
2 | (9/9) Accurately ripped
3 | (9/9) Accurately ripped
4 | (9/9) Accurately ripped
5 | (9/9) Accurately ripped
6 | (9/9) Accurately ripped
7 | (9/9) Accurately ripped

==== Log checksum 1CC46ECBA240648A0A3DE424C1D487ACFD3FFEFBCBCD2489ABFF93A6BA5CE027 ====

REM GENRE “Hard Rock”
REM DATE 1971
REM DISCID 4D093007
REM COMMENT “ExactAudioCopy v1.0b4”
CATALOG 4943674056378
PERFORMER “Deep Purple”
TITLE “Fireball (2008, SHM-CD, WPCR-13111)”
FILE “Deep Purple – Fireball.flac” WAVE
TRACK 01 AUDIO
TITLE “Fireball”
PERFORMER “Deep Purple”
ISRC USWB19903561
INDEX 01 00:00:00
TRACK 02 AUDIO
TITLE “No No No”
PERFORMER “Deep Purple”
ISRC USWB10100690
INDEX 00 03:22:30
INDEX 01 03:24:20
TRACK 03 AUDIO
TITLE “Strange Kind of Woman”
PERFORMER “Deep Purple”
ISRC USWB10100691
INDEX 00 10:16:27
INDEX 01 10:18:15
TRACK 04 AUDIO
TITLE “Anyone’s Daughter”
PERFORMER “Deep Purple”
ISRC USWB10100692
INDEX 00 14:22:00
INDEX 01 14:24:05
TRACK 05 AUDIO
TITLE “The Mule”
PERFORMER “Deep Purple”
ISRC USWB10100693
INDEX 00 19:07:27
INDEX 01 19:09:25
TRACK 06 AUDIO
TITLE “Fools”
PERFORMER “Deep Purple”
ISRC USWB10100694
INDEX 00 24:28:37
INDEX 01 24:30:10
TRACK 07 AUDIO
TITLE “No One Came”
PERFORMER “Deep Purple”
ISRC USWB10100695
INDEX 00 32:47:32
INDEX 01 32:48:70


Leave a Reply

Your email address will not be published. Required fields are marked *

This site uses Akismet to reduce spam. Learn how your comment data is processed.