Deep Purple – Deepest Purple: The Very Best Of Deep Purple




[Total: 0    Average: 0/5]

Artist: Deep Purple
Year: 1989
Genre: Rock
Notes: Discogs
Add. Notes:
Cover incl.: Yes
Encoder: FLAC
Bitrate: ~900 kBit/s (44.1 kHz/16 Bit/s)
Log & Cue incl.: Yes
Size: 405,07 MB
Password: “slam” (without ” “)


All Downloads/Hosters are compatible

Download 1
Share-online.biz
KatFile.com
Rapidgator.net
Mexa.sh
Download 2
Share-online.biz
KatFile.com
Rapidgator.net
Mexa.sh

Tracklist:

1 - Black Night - 3:13
2 - Speed King - 5:03
3 - Fireball - 3:23
4 - Strange Kind Of Woman - 3:51
5 - Child In Time - 10:17
6 - Woman From Tokyo - 5:49
7 - Highway Star - 6:05
8 - Space Truckin' - 4:31
9 - Burn - 6:00
10 - Stormbringer - 4:04
11 - Demons Eye - 5:20
12 - Smoke On The Water - 5:39

EAC-Log, CUE-Sheed & NFO:

Click to open spoiler
Exact Audio Copy V1.0 beta 3 from 29. August 2011

EAC extraction logfile from 17. August 2013, 12:20

Deep Purple / Deepest Purple. The Very Best Of Deep Purple

Used drive : ATAPI iHAS124 B Adapter: 2 ID: 0

Read mode : Secure
Utilize accurate stream : Yes
Defeat audio cache : Yes
Make use of C2 pointers : No

Read offset correction : 6
Overread into Lead-In and Lead-Out : No
Fill up missing offset samples with silence : Yes
Delete leading and trailing silent blocks : No
Null samples used in CRC calculations : Yes
Used interface : Native Win32 interface for Win NT & 2000

Used output format : User Defined Encoder
Selected bitrate : 1024 kBit/s
Quality : High
Add ID3 tag : No
Command line compressor : C:\Program Files (x86)\Exact Audio Copy\FLAC\FLAC.EXE
Additional command line options : -8 -V -T “ARTIST=%artist%” -T “TITLE=%title%” -T “ALBUM=%albumtitle%” -T “DATE=%year%” -T “TRACKNUMBER=%tracknr%” -T “GENRE=%genre%” -T “PERFORMER=%albuminterpret%” -T “COMPOSER=%composer%” %haslyrics%–tag-from-file=LYRICS=”%lyricsfile%”%haslyrics% -T “ALBUMARTIST=%albumartist%” -T “DISCNUMBER=%cdnumber%” -T “TOTALDISCS=%totalcds%” -T “TOTALTRACKS=%numtracks%” -T “COMMENT=%comment%” %source% -o %dest%

TOC of the extracted CD

Track | Start | Length | Start sector | End sector
———————————————————
1 | 0:00.00 | 3:28.65 | 0 | 15664
2 | 3:28.65 | 5:04.47 | 15665 | 38511
3 | 8:33.37 | 3:24.48 | 38512 | 53859
4 | 11:58.10 | 3:52.55 | 53860 | 71314
5 | 15:50.65 | 10:19.20 | 71315 | 117759
6 | 26:10.10 | 5:51.05 | 117760 | 144089
7 | 32:01.15 | 6:07.15 | 144090 | 171629
8 | 38:08.30 | 4:32.45 | 171630 | 192074
9 | 42:41.00 | 6:02.22 | 192075 | 219246
10 | 48:43.22 | 4:06.00 | 219247 | 237696
11 | 52:49.22 | 5:22.45 | 237697 | 261891
12 | 58:11.67 | 5:40.10 | 261892 | 287401

Range status and errors

Selected range

Filename G:\CD\Deep Purple – Deepest Purple. The Very Best Of Deep Purple.wav

Peak level 100.0 %
Extraction speed 5.9 X
Range quality 100.0 %
Test CRC 70FF13DA
Copy CRC 70FF13DA
Copy OK

No errors occurred

AccurateRip summary

Track 1 accurately ripped (confidence 12) [C074A9AF] (AR v2)
Track 2 accurately ripped (confidence 12) [5F3C2F0C] (AR v2)
Track 3 accurately ripped (confidence 12) [ED4FC701] (AR v2)
Track 4 accurately ripped (confidence 12) [3DC41AE4] (AR v2)
Track 5 accurately ripped (confidence 12) [522A7EF5] (AR v2)
Track 6 accurately ripped (confidence 12) [0DA1ECB4] (AR v2)
Track 7 accurately ripped (confidence 12) [6CC224A2] (AR v2)
Track 8 accurately ripped (confidence 12) [3EA5CAF0] (AR v2)
Track 9 accurately ripped (confidence 12) [4008EECA] (AR v2)
Track 10 accurately ripped (confidence 12) [343CD85A] (AR v2)
Track 11 accurately ripped (confidence 12) [E27843CD] (AR v2)
Track 12 accurately ripped (confidence 12) [F4AF3FA2] (AR v2)

All tracks accurately ripped

End of status report

==== Log checksum F509F42AE26578755B7FF7DA9849FA2AB22684F978DF39761339ABFCCDD9AE94 ====

REM GENRE “Hard Rock”
REM DATE 1980
REM DISCID 950EF80C
REM COMMENT “ExactAudioCopy v1.0b3”
PERFORMER “Deep Purple”
TITLE “Deepest Purple. The Very Best Of Deep Purple (1989, CDP 7 46032 2)”
FILE “Deep Purple – Deepest Purple. The Very Best Of Deep Purple.flac” WAVE
TRACK 01 AUDIO
TITLE “Black Night”
PERFORMER “Deep Purple”
INDEX 01 00:00:00
TRACK 02 AUDIO
TITLE “Speed King”
PERFORMER “Deep Purple”
INDEX 00 03:28:07
INDEX 01 03:28:65
TRACK 03 AUDIO
TITLE “Fireball”
PERFORMER “Deep Purple”
INDEX 00 08:33:32
INDEX 01 08:33:37
TRACK 04 AUDIO
TITLE “Strange Kind Of Woman”
PERFORMER “Deep Purple”
INDEX 00 11:57:37
INDEX 01 11:58:10
TRACK 05 AUDIO
TITLE “Child In Time”
PERFORMER “Deep Purple”
INDEX 00 15:49:22
INDEX 01 15:50:65
TRACK 06 AUDIO
TITLE “Woman From Tokyo”
PERFORMER “Deep Purple”
INDEX 00 26:09:37
INDEX 01 26:10:10
TRACK 07 AUDIO
TITLE “Highway Star”
PERFORMER “Deep Purple”
INDEX 00 31:59:25
INDEX 01 32:01:15
TRACK 08 AUDIO
TITLE “Space Truckin'”
PERFORMER “Deep Purple”
INDEX 00 38:08:10
INDEX 01 38:08:30
TRACK 09 AUDIO
TITLE “Burn”
PERFORMER “Deep Purple”
INDEX 00 42:40:55
INDEX 01 42:41:00
TRACK 10 AUDIO
TITLE “Stormbringer”
PERFORMER “Deep Purple”
INDEX 00 48:42:60
INDEX 01 48:43:22
TRACK 11 AUDIO
TITLE “Demons Eye”
PERFORMER “Deep Purple”
INDEX 00 52:49:02
INDEX 01 52:49:22
TRACK 12 AUDIO
TITLE “Smoke On The Water”
PERFORMER “Deep Purple”
INDEX 00 58:11:12
INDEX 01 58:11:67


Spread the Download

Leave a Reply

Your email address will not be published. Required fields are marked *

Enter the text from the image below
 

This site uses Akismet to reduce spam. Learn how your comment data is processed.