Deep Purple – Deep Purple




No Cover available


Artist: Deep Purple
Year: 1969/1990
Genre: Rock
Notes: Discogs
Add. Notes:
Watch Songs on: YouTube
Cover incl.: Yes
Encoder: FLAC
Bitrate: ~800 kBit/s (44.1 kHz/16 Bit/s)
Log & Cue incl.: Yes/Yes
Size: 244,5 MB
Password: “slam” (without ” “)


All Downloads/Hosters are compatible

Download 1
KatFile.com
Turbobit.net
Rapidgator.net
FileFactory.com
Download 2
KatFile.com
Turbobit.net
Rapidgator.net
FileFactory.com

Tracklist:

1 Chasing Shadows 5:36
2 Blind 5:27
3 Lalena 5:06
4 Fault Line 1:46
5 The Painter 3:52
6 Why Didn't Rosemary? 5:04
7 Bird Has Flown 5:37
8 April 12:04

EAC-Log, CUE-Sheed & NFO:

Click to open spoiler
Exact Audio Copy V1.1 from 23. June 2015

EAC extraction logfile from 14. January 2016, 12:35

Deep Purple / Deep Purple (Creative Sounds)

Used drive : HL-DT-STDVD+-RW GH50N Adapter: 1 ID: 0

Read mode : Secure
Utilize accurate stream : Yes
Defeat audio cache : Yes
Make use of C2 pointers : No

Read offset correction : 667
Overread into Lead-In and Lead-Out : No
Fill up missing offset samples with silence : Yes
Delete leading and trailing silent blocks : No
Null samples used in CRC calculations : Yes
Used interface : Native Win32 interface for Win NT & 2000

Used output format : User Defined Encoder
Selected bitrate : 768 kBit/s
Quality : High
Add ID3 tag : No
Command line compressor : C:\Program Files (x86)\Exact Audio Copy\FLAC\FLAC.EXE
Additional command line options : -V -8 -T “Date=%year%” -T “Genre=%genre%” %source%

TOC of the extracted CD

Track | Start | Length | Start sector | End sector
———————————————————
1 | 0:00.33 | 5:35.47 | 33 | 25204
2 | 5:36.05 | 5:26.65 | 25205 | 49719
3 | 11:02.70 | 5:05.73 | 49720 | 72667
4 | 16:08.68 | 5:39.10 | 72668 | 98102
5 | 21:48.03 | 5:04.60 | 98103 | 120962
6 | 26:52.63 | 5:37.02 | 120963 | 146239
7 | 32:29.65 | 12:05.10 | 146240 | 200624

Range status and errors

Selected range

Filename F:\Deep Purple\Creative Sounds\1969 – Deep Purple\Deep Purple – Deep Purple (Creative Sounds).wav

Peak level 99.5 %
Extraction speed 2.9 X
Range quality 100.0 %
Test CRC 27E57E1E
Copy CRC 27E57E1E
Copy OK

No errors occurred

AccurateRip summary

Track 1 accurately ripped (confidence 4) [E00BAD00] (AR v2)
Track 2 accurately ripped (confidence 4) [6B23E591] (AR v2)
Track 3 accurately ripped (confidence 4) [53FA38EE] (AR v2)
Track 4 accurately ripped (confidence 4) [919F158F] (AR v2)
Track 5 accurately ripped (confidence 4) [760A6883] (AR v2)
Track 6 accurately ripped (confidence 4) [751865A9] (AR v2)
Track 7 accurately ripped (confidence 4) [A5B4F8BC] (AR v2)

All tracks accurately ripped

End of status report

—- CUETools DB Plugin V2.1.6

[CTDB TOCID: IJNG7oaUXTmMAm7zpOHGmRS9tII-] found
Submit result: IJNG7oaUXTmMAm7zpOHGmRS9tII- has been confirmed
Track | CTDB Status
1 | (4/4) Accurately ripped
2 | (4/4) Accurately ripped
3 | (3/4) Accurately ripped
4 | (4/4) Accurately ripped
5 | (4/4) Accurately ripped
6 | (4/4) Accurately ripped
7 | (4/4) Accurately ripped

==== Log checksum DAAE8EDAB227DC56A35B0CC87FE9D18005A906D239406468EFA7AB513499100A ====

REM GENRE “Hard Rock”
REM DATE 1969
REM DISCID 510A7307
REM COMMENT “ExactAudioCopy v1.1”
PERFORMER “Deep Purple”
TITLE “Deep Purple (Creative Sounds)”
FILE “Deep Purple – Deep Purple (Creative Sounds).flac” WAVE
TRACK 01 AUDIO
TITLE “Chasing Shadows”
PERFORMER “Deep Purple”
INDEX 00 00:00:00
INDEX 01 00:00:33
TRACK 02 AUDIO
TITLE “Blind”
PERFORMER “Deep Purple”
INDEX 00 05:33:48
INDEX 01 05:36:05
TRACK 03 AUDIO
TITLE “Lalena”
PERFORMER “Deep Purple”
INDEX 00 10:59:23
INDEX 01 11:02:70
TRACK 04 AUDIO
TITLE “a) Fault Line b) The Painter”
PERFORMER “Deep Purple”
INDEX 00 16:05:65
INDEX 01 16:08:68
INDEX 02 17:55:35
TRACK 05 AUDIO
TITLE “Why Didn.t Rosemary?”
PERFORMER “Deep Purple”
INDEX 00 21:44:15
INDEX 01 21:48:03
TRACK 06 AUDIO
TITLE “Bird Has Flown”
PERFORMER “Deep Purple”
INDEX 00 26:48:48
INDEX 01 26:52:63
TRACK 07 AUDIO
TITLE “April”
PERFORMER “Deep Purple”
INDEX 00 32:26:13
INDEX 01 32:29:65


Leave a Reply

Your email address will not be published. Required fields are marked *

Enter the text from the image below
 

This site uses Akismet to reduce spam. Learn how your comment data is processed.