Deep Purple – Deep Purple (Reissue)




Artist: Deep Purple
Year: 1969/1988
Genre: Rock
Notes: Discogs
Add. Notes: Reissue
Cover incl.: Yes
Encoder: FLAC
Bitrate: ~800 kBit/s (44.1 kHz/16 Bit/s)
Log & Cue incl.: Yes
Size: 280 MB
Password: “slam” (without ” “)


All Downloads/Hosters are compatible

Download 1
KatFile.com
Rapidgator.net
FileFactory.com
Turbobit.net
Download 2
KatFile.com
Rapidgator.net
FileFactory.com
Turbobit.net

Tracklist:

1. Chasing Shadows 
2. Blind 
3. Lalena 
4a. Fault Line 
4b. The Painter 
5. Why Didn't Rosemary? 
6. Bird Has Flown 
7. April

EAC-Log, CUE-Sheed & NFO:

Click to open spoiler
Exact Audio Copy V1.1 from 23. June 2015

EAC extraction logfile from 1. February 2017, 20:49

Deep Purple / Deep Purple

Used drive : SONY BD RW BDX-S600U Adapter: 1 ID: 1

Read mode : Secure
Utilize accurate stream : Yes
Defeat audio cache : Yes
Make use of C2 pointers : No

Read offset correction : 48
Overread into Lead-In and Lead-Out : No
Fill up missing offset samples with silence : Yes
Delete leading and trailing silent blocks : No
Null samples used in CRC calculations : Yes
Used interface : Native Win32 interface for Win NT & 2000

Used output format : User Defined Encoder
Selected bitrate : 768 kBit/s
Quality : High
Add ID3 tag : No
Command line compressor : C:\Program Files (x86)\Exact Audio Copy\FLAC\FLAC.EXE
Additional command line options : -V -8 -T “Date=%year%” -T “Genre=%genre%” %source%

TOC of the extracted CD

Track | Start | Length | Start sector | End sector
———————————————————
1 | 0:00.00 | 5:31.70 | 0 | 24894
2 | 5:31.70 | 5:22.45 | 24895 | 49089
3 | 10:54.40 | 5:01.30 | 49090 | 71694
4 | 15:55.70 | 5:30.45 | 71695 | 96489
5 | 21:26.40 | 4:56.07 | 96490 | 118696
6 | 26:22.47 | 5:30.28 | 118697 | 143474
7 | 31:53.00 | 11:52.25 | 143475 | 196899

Range status and errors

Selected range

Filename D:\Deep Purple Discography\Studio\1969. Deep Purple – Deep Purple\1969. Deep Purple – Deep Purple (Passport Rec.,PBCD 3608,USA)\Deep Purple – Deep Purple.wav

Peak level 99.7 %
Extraction speed 6.1 X
Range quality 100.0 %
Test CRC 068FD0F9
Copy CRC 068FD0F9
Copy OK

No errors occurred

AccurateRip summary

Track 1 accurately ripped (confidence 3) [303FF081] (AR v2)
Track 2 accurately ripped (confidence 3) [6645421D] (AR v2)
Track 3 accurately ripped (confidence 4) [4C1B1852] (AR v2)
Track 4 accurately ripped (confidence 3) [2713E435] (AR v2)
Track 5 accurately ripped (confidence 3) [91F1FE69] (AR v2)
Track 6 accurately ripped (confidence 3) [2EB1FF0C] (AR v2)
Track 7 accurately ripped (confidence 3) [5F655A9C] (AR v2)

All tracks accurately ripped

End of status report

—- CUETools DB Plugin V2.1.6

[CTDB TOCID: 9MNqTEpUWIQ5osA1G7uy7nyASXk-] found
Submit result: 9MNqTEpUWIQ5osA1G7uy7nyASXk- has been confirmed
Track | CTDB Status
1 | (11/12) Accurately ripped
2 | (11/12) Accurately ripped
3 | (12/12) Accurately ripped
4 | (11/12) Accurately ripped
5 | (11/12) Accurately ripped
6 | (11/12) Accurately ripped
7 | (11/12) Accurately ripped

==== Log checksum 20DC7511C2E34E8125FF02B07B029E3B68AF9DA330690BDB361ADDE853A3EF17 ====

REM GENRE Rock
REM DATE 1969
REM DISCID 660A4107
REM COMMENT “ExactAudioCopy v1.1”
PERFORMER “Deep Purple”
TITLE “Deep Purple”
FILE “Deep Purple – Deep Purple.flac” WAVE
TRACK 01 AUDIO
TITLE “Chasing Shadows”
PERFORMER “Deep Purple”
INDEX 01 00:00:00
TRACK 02 AUDIO
TITLE “Blind”
PERFORMER “Deep Purple”
INDEX 00 05:29:47
INDEX 01 05:31:70
TRACK 03 AUDIO
TITLE “Lalena”
PERFORMER “Deep Purple”
INDEX 00 10:50:70
INDEX 01 10:54:40
TRACK 04 AUDIO
TITLE “Fault Line/The Painter”
PERFORMER “Deep Purple”
INDEX 00 15:53:65
INDEX 01 15:55:70
TRACK 05 AUDIO
TITLE “Why Didn’t Rosemary?”
PERFORMER “Deep Purple”
INDEX 00 21:24:65
INDEX 01 21:26:40
TRACK 06 AUDIO
TITLE “Bird Has Flown”
PERFORMER “Deep Purple”
INDEX 00 26:20:20
INDEX 01 26:22:47
TRACK 07 AUDIO
TITLE “April”
PERFORMER “Deep Purple”
INDEX 00 31:50:05
INDEX 01 31:53:00


Leave a Reply

Your email address will not be published. Required fields are marked *

Enter the text from the image below
 

This site uses Akismet to reduce spam. Learn how your comment data is processed.