Deep Purple – Copenhagen 1972 (Remastered)




No Cover available

Artist: Deep Purple
Year: 2002/2013
Genre: Rock
Notes: Discogs
Add. Notes: Remastered
Watch Songs on: YouTube
Cover incl.: Yes
Encoder: FLAC
Bitrate: ~800 kBit/s (44.1 kHz/16 Bit/s)
Log & Cue incl.: Yes/Yes
Size: 764,1 MB
Password: “slam” (without ” “)


All Downloads/Hosters are compatible

Download 1
KatFile.com
Turbobit.net
FileFactory.com
Rapidgator.net
Download 2
KatFile.com
Turbobit.net
FileFactory.com
Rapidgator.net

Tracklist:

1-1 Highway Star 8:26
1-2 Strange Kind Of Woman 9:33
1-3 Child In Time 17:27
1-4 The Mule 9:24
1-5 Lazy 11:16
1-6 Space Truckin' 22:11
2-1 Fireball 5:12
2-2 Lucille 5:55
2-3 Black Night 6:15

Bonus
2-4 Strange Kind Of Woman (Live New York 1973) 6:18
2-5 Smoke On The Water (Live New York 1973) 5:25
2-6 Space Truckin' (Live New York 1973) 10:42
2-7 1971 Australian Interview 5:44

EAC-Log, CUE-Sheed & NFO:

Click to open spoiler
Exact Audio Copy V1.0 beta 3 from 29. August 2011

EAC extraction logfile from 18. June 2013, 21:42

Deep Purple / Copenhagen 1972 CD1

Used drive : ATAPI iHAS124 B Adapter: 2 ID: 0

Read mode : Secure
Utilize accurate stream : Yes
Defeat audio cache : Yes
Make use of C2 pointers : No

Read offset correction : 6
Overread into Lead-In and Lead-Out : No
Fill up missing offset samples with silence : Yes
Delete leading and trailing silent blocks : No
Null samples used in CRC calculations : Yes
Used interface : Native Win32 interface for Win NT & 2000

Used output format : User Defined Encoder
Selected bitrate : 1024 kBit/s
Quality : High
Add ID3 tag : No
Command line compressor : C:\Program Files (x86)\Exact Audio Copy\FLAC\FLAC.EXE
Additional command line options : -8 -V -T “ARTIST=%artist%” -T “TITLE=%title%” -T “ALBUM=%albumtitle%” -T “DATE=%year%” -T “TRACKNUMBER=%tracknr%” -T “GENRE=%genre%” -T “PERFORMER=%albuminterpret%” -T “COMPOSER=%composer%” %haslyrics%–tag-from-file=LYRICS=”%lyricsfile%”%haslyrics% -T “ALBUMARTIST=%albumartist%” -T “DISCNUMBER=%cdnumber%” -T “TOTALDISCS=%totalcds%” -T “TOTALTRACKS=%numtracks%” -T “COMMENT=%comment%” %source% -o %dest%

TOC of the extracted CD

Track | Start | Length | Start sector | End sector
———————————————————
1 | 0:00.00 | 8:25.69 | 0 | 37943
2 | 8:25.69 | 9:33.27 | 37944 | 80945
3 | 17:59.21 | 17:26.70 | 80946 | 159465
4 | 35:26.16 | 9:23.54 | 159466 | 201744
5 | 44:49.70 | 11:16.23 | 201745 | 252467
6 | 56:06.18 | 22:10.70 | 252468 | 352287

Range status and errors

Selected range

Filename G:\CD\Deep Purple – Copenhagen 1972 CD1.wav

Peak level 100.0 %
Extraction speed 6.8 X
Range quality 100.0 %
Test CRC 432A82AD
Copy CRC 432A82AD
Copy OK

No errors occurred

AccurateRip summary

Track 1 not present in database
Track 2 not present in database
Track 3 not present in database
Track 4 not present in database
Track 5 not present in database
Track 6 not present in database

None of the tracks are present in the AccurateRip database

End of status report

==== Log checksum 94324C4A1CE5202FC813BB0A9A853B31DFEFB42AADFB97A379ACC8F2BD3A7248 ====

Exact Audio Copy V1.0 beta 3 from 29. August 2011

EAC extraction logfile from 18. June 2013, 21:59

Deep Purple / Copenhagen 1972 CD2

Used drive : ATAPI iHAS124 B Adapter: 2 ID: 0

Read mode : Secure
Utilize accurate stream : Yes
Defeat audio cache : Yes
Make use of C2 pointers : No

Read offset correction : 6
Overread into Lead-In and Lead-Out : No
Fill up missing offset samples with silence : Yes
Delete leading and trailing silent blocks : No
Null samples used in CRC calculations : Yes
Used interface : Native Win32 interface for Win NT & 2000

Used output format : User Defined Encoder
Selected bitrate : 1024 kBit/s
Quality : High
Add ID3 tag : No
Command line compressor : C:\Program Files (x86)\Exact Audio Copy\FLAC\FLAC.EXE
Additional command line options : -8 -V -T “ARTIST=%artist%” -T “TITLE=%title%” -T “ALBUM=%albumtitle%” -T “DATE=%year%” -T “TRACKNUMBER=%tracknr%” -T “GENRE=%genre%” -T “PERFORMER=%albuminterpret%” -T “COMPOSER=%composer%” %haslyrics%–tag-from-file=LYRICS=”%lyricsfile%”%haslyrics% -T “ALBUMARTIST=%albumartist%” -T “DISCNUMBER=%cdnumber%” -T “TOTALDISCS=%totalcds%” -T “TOTALTRACKS=%numtracks%” -T “COMMENT=%comment%” %source% -o %dest%

TOC of the extracted CD

Track | Start | Length | Start sector | End sector
———————————————————
1 | 0:00.00 | 5:11.48 | 0 | 23372
2 | 5:11.48 | 5:55.35 | 23373 | 50032
3 | 11:07.08 | 6:14.73 | 50033 | 78155
4 | 17:22.06 | 6:18.21 | 78156 | 106526
5 | 23:40.27 | 5:24.40 | 106527 | 130866
6 | 29:04.67 | 10:41.69 | 130867 | 179010
7 | 39:46.61 | 5:44.37 | 179011 | 204847

Range status and errors

Selected range

Filename G:\CD\Deep Purple – Copenhagen 1972 CD2.wav

Peak level 100.0 %
Extraction speed 5.7 X
Range quality 100.0 %
Test CRC D7E311A5
Copy CRC D7E311A5
Copy OK

No errors occurred

AccurateRip summary

Track 1 not present in database
Track 2 not present in database
Track 3 not present in database
Track 4 not present in database
Track 5 not present in database
Track 6 not present in database
Track 7 not present in database

None of the tracks are present in the AccurateRip database

End of status report

==== Log checksum 0FEBE8EA544DCAE7C2CD608A3F599AABA0FAB5EC0003ED4C9C243CAFABE6A246 ====

REM GENRE “Hard Rock”
REM DATE 2005
REM DISCID 4B125906
REM COMMENT “ExactAudioCopy v1.0b3”
PERFORMER “Deep Purple”
TITLE “Copenhagen 1972 CD1 (2013, 2CD, 0208369ERE)”
FILE “Deep Purple – Copenhagen 1972 CD1.flac” WAVE
TRACK 01 AUDIO
TITLE “Highway Star”
PERFORMER “Deep Purple”
INDEX 01 00:00:00
TRACK 02 AUDIO
TITLE “Strange Kind Of Woman”
PERFORMER “Deep Purple”
INDEX 01 08:25:69
TRACK 03 AUDIO
TITLE “Child In Time”
PERFORMER “Deep Purple”
INDEX 01 17:59:21
TRACK 04 AUDIO
TITLE “The Mule”
PERFORMER “Deep Purple”
INDEX 01 35:26:16
TRACK 05 AUDIO
TITLE “Lazy”
PERFORMER “Deep Purple”
INDEX 01 44:49:70
TRACK 06 AUDIO
TITLE “Space Truckin'”
PERFORMER “Deep Purple”
INDEX 01 56:06:18

REM GENRE “Hard Rock”
REM DATE 2005
REM DISCID 570AAB07
REM COMMENT “ExactAudioCopy v1.0b3”
PERFORMER “Deep Purple”
TITLE “Copenhagen 1972 CD2 (2013, 2CD, 0208369ERE)”
FILE “Deep Purple – Copenhagen 1972 CD2.flac” WAVE
TRACK 01 AUDIO
TITLE “Fireball”
PERFORMER “Deep Purple”
INDEX 01 00:00:00
TRACK 02 AUDIO
TITLE “Lucille”
PERFORMER “Deep Purple”
INDEX 01 05:11:48
TRACK 03 AUDIO
TITLE “Black Night”
PERFORMER “Deep Purple”
INDEX 01 11:07:08
TRACK 04 AUDIO
TITLE “Strange Kind Of Woman (live In New York 1973)”
PERFORMER “Deep Purple”
INDEX 01 17:22:06
TRACK 05 AUDIO
TITLE “Smoke On The Water (live In New York 1973)”
PERFORMER “Deep Purple”
INDEX 00 23:38:24
INDEX 01 23:40:27
TRACK 06 AUDIO
TITLE “Space Truckin’ (live In New York 1973)”
PERFORMER “Deep Purple”
INDEX 00 29:02:61
INDEX 01 29:04:67
TRACK 07 AUDIO
TITLE “1971 Australian Interview”
PERFORMER “Deep Purple”
INDEX 00 39:44:37
INDEX 01 39:46:61


Leave a Reply

Your email address will not be published. Required fields are marked *

Enter the text from the image below
 

This site uses Akismet to reduce spam. Learn how your comment data is processed.