Deep Purple – Concerto for Group and Orchestra (Remastered)




No Cover available


Artist: Deep Purple
Year: 1969/2002
Genre: Rock
Notes: Discogs
Add. Notes: Remastered
Watch Songs on: YouTube
Cover incl.: Yes
Encoder: FLAC
Bitrate: ~800 kBit/s (44.1 kHz/16 Bit/s)
Log & Cue incl.: Yes/Yes
Size: 624,1 MB
Password: “slam” (without ” “)


All Downloads/Hosters are compatible

Download 1
KatFile.com
Turbobit.net
Rapidgator.net
FileFactory.com
Download 2
KatFile.com
Turbobit.net
Rapidgator.net
FileFactory.com

Tracklist:

1-1 Intro 3:27
1-2 Hush 4:40
1-3 Wring That Neck 13:23
1-4 Child In Time 12:02

Concerto For Group & Orchestra 
2-1 First Movement: Moderato - Allegro 19:21
2-2 Second Movement: Andante 19:11
2-3 Third Movement: Vivace - Presto 13:08
2-4 Encore: Third Movement: Vivace - Presto (Part) 5:52

EAC-Log, CUE-Sheed & NFO:

Click to open spoiler
Exact Audio Copy V1.0 beta 3 from 29. August 2011

EAC extraction logfile from 25. July 2013, 10:43

Deep Purple / Concerto for Group and Orchestra CD1

Used drive : ATAPI iHAS124 B Adapter: 2 ID: 0

Read mode : Secure
Utilize accurate stream : Yes
Defeat audio cache : Yes
Make use of C2 pointers : No

Read offset correction : 6
Overread into Lead-In and Lead-Out : No
Fill up missing offset samples with silence : Yes
Delete leading and trailing silent blocks : No
Null samples used in CRC calculations : Yes
Used interface : Native Win32 interface for Win NT & 2000

Used output format : User Defined Encoder
Selected bitrate : 1024 kBit/s
Quality : High
Add ID3 tag : No
Command line compressor : C:\Program Files (x86)\Exact Audio Copy\FLAC\FLAC.EXE
Additional command line options : -8 -V -T “ARTIST=%artist%” -T “TITLE=%title%” -T “ALBUM=%albumtitle%” -T “DATE=%year%” -T “TRACKNUMBER=%tracknr%” -T “GENRE=%genre%” -T “PERFORMER=%albuminterpret%” -T “COMPOSER=%composer%” %haslyrics%–tag-from-file=LYRICS=”%lyricsfile%”%haslyrics% -T “ALBUMARTIST=%albumartist%” -T “DISCNUMBER=%cdnumber%” -T “TOTALDISCS=%totalcds%” -T “TOTALTRACKS=%numtracks%” -T “COMMENT=%comment%” %source% -o %dest%

TOC of the extracted CD

Track | Start | Length | Start sector | End sector
———————————————————
1 | 0:00.00 | 3:27.72 | 0 | 15596
2 | 3:27.72 | 4:40.40 | 15597 | 36636
3 | 8:08.37 | 13:23.43 | 36637 | 96904
4 | 21:32.05 | 12:02.32 | 96905 | 151086

Range status and errors

Selected range

Filename G:\CD\Deep Purple – Concerto for Group and Orchestra CD1.wav

Peak level 100.0 %
Extraction speed 5.1 X
Range quality 100.0 %
Test CRC 0C05AAE6
Copy CRC 0C05AAE6
Copy OK

No errors occurred

AccurateRip summary

Track 1 accurately ripped (confidence 18) [01999B9B] (AR v2)
Track 2 accurately ripped (confidence 18) [70A9E457] (AR v2)
Track 3 accurately ripped (confidence 17) [300BE58B] (AR v2)
Track 4 accurately ripped (confidence 18) [CA24DC1C] (AR v2)

All tracks accurately ripped

End of status report

==== Log checksum 62C87A721C4FE67551362AEFA53EC8707EA7C6090F880AD66A3E97C6D4368BC8 ====

Exact Audio Copy V1.0 beta 3 from 29. August 2011

EAC extraction logfile from 25. July 2013, 20:05

Deep Purple / Concerto for Group and Orchestra CD2

Used drive : ATAPI iHAS124 B Adapter: 2 ID: 0

Read mode : Secure
Utilize accurate stream : Yes
Defeat audio cache : Yes
Make use of C2 pointers : No

Read offset correction : 6
Overread into Lead-In and Lead-Out : No
Fill up missing offset samples with silence : Yes
Delete leading and trailing silent blocks : No
Null samples used in CRC calculations : Yes
Used interface : Native Win32 interface for Win NT & 2000

Used output format : User Defined Encoder
Selected bitrate : 1024 kBit/s
Quality : High
Add ID3 tag : No
Command line compressor : C:\Program Files (x86)\Exact Audio Copy\FLAC\FLAC.EXE
Additional command line options : -8 -V -T “ARTIST=%artist%” -T “TITLE=%title%” -T “ALBUM=%albumtitle%” -T “DATE=%year%” -T “TRACKNUMBER=%tracknr%” -T “GENRE=%genre%” -T “PERFORMER=%albuminterpret%” -T “COMPOSER=%composer%” %haslyrics%–tag-from-file=LYRICS=”%lyricsfile%”%haslyrics% -T “ALBUMARTIST=%albumartist%” -T “DISCNUMBER=%cdnumber%” -T “TOTALDISCS=%totalcds%” -T “TOTALTRACKS=%numtracks%” -T “COMMENT=%comment%” %source% -o %dest%

TOC of the extracted CD

Track | Start | Length | Start sector | End sector
———————————————————
1 | 0:00.00 | 19:21.22 | 0 | 87096
2 | 19:21.22 | 19:11.05 | 87097 | 173426
3 | 38:32.27 | 13:08.50 | 173427 | 232576
4 | 51:41.02 | 5:52.05 | 232577 | 258981

Range status and errors

Selected range

Filename G:\CD\Deep Purple – Concerto for Group and Orchestra CD2.wav

Peak level 100.0 %
Extraction speed 5.9 X
Range quality 100.0 %
Test CRC 404B5A9E
Copy CRC 404B5A9E
Copy OK

No errors occurred

AccurateRip summary

Track 1 accurately ripped (confidence 16) [2DE8688E] (AR v2)
Track 2 accurately ripped (confidence 15) [8975BD5F] (AR v2)
Track 3 accurately ripped (confidence 16) [D27A1E07] (AR v2)
Track 4 accurately ripped (confidence 18) [82549F96] (AR v2)

All tracks accurately ripped

End of status report

==== Log checksum E107306A596BA595638122FC11CFA74C3099259BBAB5063C197A892EC8A6DA97 ====

REM GENRE “Hard Rock”
REM DATE 1969
REM DISCID 2A07DE04
REM COMMENT “ExactAudioCopy v1.0b3”
PERFORMER “Deep Purple”
TITLE “Concerto for Group and Orchestra CD1 (2002, 2CD, 0724354100628)”
FILE “Deep Purple – Concerto for Group and Orchestra CD1.flac” WAVE
TRACK 01 AUDIO
TITLE “Intro”
PERFORMER “Deep Purple”
INDEX 01 00:00:00
TRACK 02 AUDIO
TITLE “Hush”
PERFORMER “Deep Purple”
INDEX 01 03:27:72
TRACK 03 AUDIO
TITLE “Wring That Neck”
PERFORMER “Deep Purple”
INDEX 01 08:08:37
TRACK 04 AUDIO
TITLE “Child in Time”
PERFORMER “Deep Purple”
INDEX 01 21:32:05

REM GENRE “Hard Rock”
REM DATE 1969
REM DISCID 1E0D7D04
REM COMMENT “ExactAudioCopy v1.0b3”
PERFORMER “Deep Purple”
TITLE “Concerto for Group and Orchestra CD2 (2002, 2CD, 0724354100628)”
FILE “Deep Purple – Concerto for Group and Orchestra CD2.flac” WAVE
TRACK 01 AUDIO
TITLE “Concerto for Group and Orchestra: I. Moderato – Allegro”
PERFORMER “Deep Purple”
INDEX 01 00:00:00
TRACK 02 AUDIO
TITLE “Concerto for Group and Orchestra: II. Andante”
PERFORMER “Deep Purple”
INDEX 01 19:21:22
TRACK 03 AUDIO
TITLE “Concerto for Group and Orchestra: III. Vivace – Presto”
PERFORMER “Deep Purple”
INDEX 01 38:32:27
TRACK 04 AUDIO
TITLE “Concerto for Group and Orchestra: Parts of the Concerto’s ”Third Movement” …”
PERFORMER “Deep Purple”
INDEX 01 51:41:02


Leave a Reply

Your email address will not be published. Required fields are marked *

Enter the text from the image below
 

This site uses Akismet to reduce spam. Learn how your comment data is processed.