Deep Purple – Come Taste The Band (Reissue)




Artist: Deep Purple
Year: 1975/1989
Genre: Rock
Notes: Discogs
Add. Notes: Reissue
Cover incl.: Yes
Encoder: FLAC
Bitrate: ~900 kBit/s (44.1 kHz/16 Bit/s)
Log & Cue incl.: Yes
Size: 255,7 MB
Password: “slam” (without ” “)


All Downloads/Hosters are compatible

Download 1
KatFile.com
Turbobit.net
FileFactory.com
Rapidgator.net
Download 2
KatFile.com
Turbobit.net
FileFactory.com
Rapidgator.net

Tracklist:

1 Comin' Home 
2 Lady Luck 
3 Gettin' Tighter 
4 Dealer 
5 I Need Love 
6 Drifter 
7 Love Child 
This Time Around / Owed To 'G' (Instrumental) 
8a. This Time Around 
8b. Owed To 'G' (Instrumental) 
9 You Keep On Moving

EAC-Log, CUE-Sheed & NFO:

Click to open spoiler
Exact Audio Copy V1.0 beta 3 from 29. August 2011

EAC extraction logfile from 29. August 2013, 14:23

Deep Purple / Come Taste The Band (CDMID 166162)

Used drive : HL-DT-STDVDRAM GE20NU11 Adapter: 0 ID: 1

Read mode : Secure
Utilize accurate stream : Yes
Defeat audio cache : Yes
Make use of C2 pointers : No

Read offset correction : 667
Overread into Lead-In and Lead-Out : No
Fill up missing offset samples with silence : Yes
Delete leading and trailing silent blocks : No
Null samples used in CRC calculations : Yes
Used interface : Native Win32 interface for Win NT & 2000

Used output format : User Defined Encoder
Selected bitrate : 896 kBit/s
Quality : High
Add ID3 tag : No
Command line compressor : C:\Program Files\EAC 3\Exact Audio Copy\Flac\flac.exe
Additional command line options : -V -8 %source%

TOC of the extracted CD

Track | Start | Length | Start sector | End sector
———————————————————
1 | 0:00.00 | 3:50.05 | 0 | 17254
2 | 3:50.05 | 2:45.17 | 17255 | 29646
3 | 6:35.22 | 3:31.60 | 29647 | 45531
4 | 10:07.07 | 3:47.13 | 45532 | 62569
5 | 13:54.20 | 4:18.72 | 62570 | 81991
6 | 18:13.17 | 4:00.30 | 81992 | 100021
7 | 22:13.47 | 3:04.58 | 100022 | 113879
8 | 25:18.30 | 6:07.67 | 113880 | 141471
9 | 31:26.22 | 5:18.43 | 141472 | 165364

Range status and errors

Selected range

Filename C:\OdW\Deep Purple (1975) Come Taste The Band (CDMID 166162)\Deep Purple – Come Taste The Band (CDMID 166162).wav

Peak level 100.0 %
Extraction speed 1.5 X
Range quality 99.9 %
Test CRC B202094D
Copy CRC B202094D
Copy OK

No errors occurred

AccurateRip summary

Track 1 accurately ripped (confidence 5) [5A4EA284] (AR v2)
Track 2 accurately ripped (confidence 5) [D6755240] (AR v2)
Track 3 accurately ripped (confidence 5) [9F3B3470] (AR v2)
Track 4 accurately ripped (confidence 5) [3A577398] (AR v2)
Track 5 accurately ripped (confidence 5) [45E0620E] (AR v2)
Track 6 accurately ripped (confidence 5) [3D10B7FC] (AR v2)
Track 7 accurately ripped (confidence 5) [732AC564] (AR v2)
Track 8 accurately ripped (confidence 5) [C0A37F4D] (AR v2)
Track 9 accurately ripped (confidence 5) [A2C401DD] (AR v2)

All tracks accurately ripped

End of status report

==== Log checksum EB566243C7C18281FD589FB46238AA8E2F7A5CFE348E236BB5B58F126F771C00 ====

REM GENRE Rock
REM DATE 1975
REM DISCID 78089C09
REM COMMENT “ExactAudioCopy v1.0b3”
PERFORMER “Deep Purple”
TITLE “Come Taste The Band (1989, CDMID 166162)”
FILE “Deep Purple – Come Taste The Band (CDMID 166162).flac” WAVE
TRACK 01 AUDIO
TITLE “Comin’ Home”
PERFORMER “Deep Purple”
INDEX 01 00:00:00
TRACK 02 AUDIO
TITLE “Lady Luck”
PERFORMER “Deep Purple”
INDEX 01 03:50:05
TRACK 03 AUDIO
TITLE “Gettin’ Tighter”
PERFORMER “Deep Purple”
INDEX 01 06:35:22
TRACK 04 AUDIO
TITLE “Dealer”
PERFORMER “Deep Purple”
INDEX 01 10:07:07
TRACK 05 AUDIO
TITLE “I Need Love”
PERFORMER “Deep Purple”
INDEX 01 13:54:20
TRACK 06 AUDIO
TITLE “Drifter”
PERFORMER “Deep Purple”
INDEX 01 18:13:17
TRACK 07 AUDIO
TITLE “Love Child”
PERFORMER “Deep Purple”
INDEX 01 22:13:47
TRACK 08 AUDIO
TITLE “This Time Around / Owed To ‘G’ (Instrumental)”
PERFORMER “Deep Purple”
INDEX 01 25:18:30
TRACK 09 AUDIO
TITLE “You Keep On Moving”
PERFORMER “Deep Purple”
INDEX 01 31:26:22


Leave a Reply

Your email address will not be published. Required fields are marked *

This site uses Akismet to reduce spam. Learn how your comment data is processed.