Deep Purple – Come Hell Or High Water




[Total: 0    Average: 0/5]

Artist: Deep Purple
Year: 1994
Genre: Rock
Notes: Discogs
Add. Notes:
Cover incl.: Yes
Encoder: FLAC
Bitrate: ~1000 kBit/s (44.1 kHz/16 Bit/s)
Log & Cue incl.: Yes/Yes
Size: 516,8 MB
Password: “slam” (without ” “)


All Downloads/Hosters are compatible

Download 1
KatFile.com
Turbobit.net
FileFactory.com
Rapidgator.net
Download 2
KatFile.com
Turbobit.net
FileFactory.com
Rapidgator.net
Download 3
KatFile.com
Turbobit.net
FileFactory.com
Rapidgator.net

Tracklist:

1 Highway Star 6:40
2 Black Night 5:40
3 Twist In The Tail 4:27
4 Perfect Strangers 6:52
5 Anyone's Daughter 3:57
6 Child In Time 10:48
7 Anya 12:13
8 Speed King 7:29
9 Smoke On The Water 10:26

EAC-Log, CUE-Sheed & NFO:

Click to open spoiler
Exact Audio Copy V1.0 beta 3 from 29. August 2011

EAC extraction logfile from 25. July 2013, 10:20

Deep Purple / Come Hell Or High Water

Used drive : ATAPI iHAS124 B Adapter: 2 ID: 0

Read mode : Secure
Utilize accurate stream : Yes
Defeat audio cache : Yes
Make use of C2 pointers : No

Read offset correction : 6
Overread into Lead-In and Lead-Out : No
Fill up missing offset samples with silence : Yes
Delete leading and trailing silent blocks : No
Null samples used in CRC calculations : Yes
Used interface : Native Win32 interface for Win NT & 2000

Used output format : User Defined Encoder
Selected bitrate : 1024 kBit/s
Quality : High
Add ID3 tag : No
Command line compressor : C:\Program Files (x86)\Exact Audio Copy\FLAC\FLAC.EXE
Additional command line options : -8 -V -T “ARTIST=%artist%” -T “TITLE=%title%” -T “ALBUM=%albumtitle%” -T “DATE=%year%” -T “TRACKNUMBER=%tracknr%” -T “GENRE=%genre%” -T “PERFORMER=%albuminterpret%” -T “COMPOSER=%composer%” %haslyrics%–tag-from-file=LYRICS=”%lyricsfile%”%haslyrics% -T “ALBUMARTIST=%albumartist%” -T “DISCNUMBER=%cdnumber%” -T “TOTALDISCS=%totalcds%” -T “TOTALTRACKS=%numtracks%” -T “COMMENT=%comment%” %source% -o %dest%

TOC of the extracted CD

Track | Start | Length | Start sector | End sector
———————————————————
1 | 0:00.00 | 6:41.65 | 0 | 30139
2 | 6:41.65 | 5:48.27 | 30140 | 56266
3 | 12:30.17 | 4:23.58 | 56267 | 76049
4 | 16:54.00 | 6:52.02 | 76050 | 106951
5 | 23:46.02 | 3:52.55 | 106952 | 124406
6 | 27:38.57 | 10:42.55 | 124407 | 172611
7 | 38:21.37 | 12:08.30 | 172612 | 227241
8 | 50:29.67 | 7:33.05 | 227242 | 261221
9 | 58:02.72 | 10:09.10 | 261222 | 306906

Range status and errors

Selected range

Filename G:\CD\Deep Purple – Come Hell Or High Water.wav

Peak level 100.0 %
Extraction speed 6.6 X
Range quality 100.0 %
Test CRC 88C49201
Copy CRC 88C49201
Copy OK

No errors occurred

AccurateRip summary

Track 1 accurately ripped (confidence 6) [7EC8555E] (AR v2)
Track 2 accurately ripped (confidence 6) [E22825AE] (AR v2)
Track 3 accurately ripped (confidence 6) [8A83D332] (AR v2)
Track 4 accurately ripped (confidence 6) [75D84CD9] (AR v2)
Track 5 accurately ripped (confidence 6) [C732B453] (AR v2)
Track 6 accurately ripped (confidence 6) [3A92E0DA] (AR v2)
Track 7 accurately ripped (confidence 6) [8977CC06] (AR v2)
Track 8 accurately ripped (confidence 6) [481B731F] (AR v2)
Track 9 accurately ripped (confidence 6) [D36E680B] (AR v2)

All tracks accurately ripped

End of status report

==== Log checksum 4E6DBC07686EF4DC4AB2E7E4532A1C01F742E6EDB9C2F94935986DB9F9098502 ====

REM GENRE “Hard Rock”
REM DATE 1994
REM DISCID 5D0FFC09
REM COMMENT “ExactAudioCopy v1.0b3”
PERFORMER “Deep Purple”
TITLE “Come Hell Or High Water (1994, 74321234162)”
FILE “Deep Purple – Come Hell Or High Water.flac” WAVE
TRACK 01 AUDIO
TITLE “Highway Star live”
PERFORMER “Deep Purple”
INDEX 01 00:00:00
TRACK 02 AUDIO
TITLE “Black Night live”
PERFORMER “Deep Purple”
INDEX 01 06:41:65
TRACK 03 AUDIO
TITLE “A Twist In The Tail live”
PERFORMER “Deep Purple”
INDEX 01 12:30:17
TRACK 04 AUDIO
TITLE “Perfect Strangers live”
PERFORMER “Deep Purple”
INDEX 01 16:54:00
TRACK 05 AUDIO
TITLE “Anyone’s Daughter live”
PERFORMER “Deep Purple”
INDEX 01 23:46:02
TRACK 06 AUDIO
TITLE “Child In Time live”
PERFORMER “Deep Purple”
INDEX 01 27:38:57
TRACK 07 AUDIO
TITLE “Anya live”
PERFORMER “Deep Purple”
INDEX 01 38:21:37
TRACK 08 AUDIO
TITLE “Speed King live”
PERFORMER “Deep Purple”
INDEX 01 50:29:67
TRACK 09 AUDIO
TITLE “Smoke On The Water live”
PERFORMER “Deep Purple”
INDEX 01 58:02:72


Spread the Download

Leave a Reply

Your email address will not be published. Required fields are marked *

Enter the text from the image below
 

This site uses Akismet to reduce spam. Learn how your comment data is processed.