Deep Purple – California Jamming




Artist: Deep Purple
Year: 1996
Genre: Rock
Notes: Discogs
Add. Notes:
Cover incl.: Yes
Encoder: FLAC
Bitrate: ~800 kBit/s (44.1 kHz/16 Bit/s)
Log & Cue incl.: Yes/Yes
Size: 469,9 MB
Password: “slam” (without ” “)


All Downloads/Hosters are compatible

Download 1
KatFile.com
Turbobit.net
FileFactory.com
Rapidgator.net
Download 2
KatFile.com
Turbobit.net
FileFactory.com
Rapidgator.net

Tracklist:

1 Burn 
2 Might Just Take Your Life 
3 Mistreated 
4 Smoke On The Water 
5 You Fool No One/The Mule 
6 Space Truckin

EAC-Log, CUE-Sheed & NFO:

Click to open spoiler
Exact Audio Copy V1.0 beta 3 from 29. August 2011

EAC extraction logfile from 25. July 2013, 22:49

Deep Purple / California Jamming

Used drive : ATAPI iHAS124 B Adapter: 2 ID: 0

Read mode : Secure
Utilize accurate stream : Yes
Defeat audio cache : Yes
Make use of C2 pointers : No

Read offset correction : 6
Overread into Lead-In and Lead-Out : No
Fill up missing offset samples with silence : Yes
Delete leading and trailing silent blocks : No
Null samples used in CRC calculations : Yes
Used interface : Native Win32 interface for Win NT & 2000

Used output format : User Defined Encoder
Selected bitrate : 1024 kBit/s
Quality : High
Add ID3 tag : No
Command line compressor : C:\Program Files (x86)\Exact Audio Copy\FLAC\FLAC.EXE
Additional command line options : -8 -V -T “ARTIST=%artist%” -T “TITLE=%title%” -T “ALBUM=%albumtitle%” -T “DATE=%year%” -T “TRACKNUMBER=%tracknr%” -T “GENRE=%genre%” -T “PERFORMER=%albuminterpret%” -T “COMPOSER=%composer%” %haslyrics%–tag-from-file=LYRICS=”%lyricsfile%”%haslyrics% -T “ALBUMARTIST=%albumartist%” -T “DISCNUMBER=%cdnumber%” -T “TOTALDISCS=%totalcds%” -T “TOTALTRACKS=%numtracks%” -T “COMMENT=%comment%” %source% -o %dest%

TOC of the extracted CD

Track | Start | Length | Start sector | End sector
———————————————————
1 | 0:00.33 | 6:21.00 | 33 | 28607
2 | 6:21.33 | 4:41.00 | 28608 | 49682
3 | 11:02.33 | 10:13.50 | 49683 | 95707
4 | 21:16.08 | 8:26.37 | 95708 | 133694
5 | 29:42.45 | 18:42.25 | 133695 | 217869
6 | 48:24.70 | 25:13.38 | 217870 | 331382

Range status and errors

Selected range

Filename G:\CD\Deep Purple – California Jamming.wav

Peak level 100.0 %
Extraction speed 6.2 X
Range quality 100.0 %
Test CRC 16203156
Copy CRC 16203156
Copy OK

No errors occurred

AccurateRip summary

Track 1 accurately ripped (confidence 2) [71622CF8] (AR v2)
Track 2 accurately ripped (confidence 2) [EBF5630C] (AR v2)
Track 3 accurately ripped (confidence 2) [44FAE6F8] (AR v2)
Track 4 accurately ripped (confidence 2) [F335D3C2] (AR v2)
Track 5 accurately ripped (confidence 2) [943A1A6B] (AR v2)
Track 6 accurately ripped (confidence 2) [03099107] (AR v2)

All tracks accurately ripped

End of status report

==== Log checksum D2EF035901146E823C9654E6D0085EAA51F1FE76A36E070D9C54566015E8C090 ====

REM GENRE “Hard Rock”
REM DATE 1996
REM DISCID 57114206
REM COMMENT “ExactAudioCopy v1.0b3”
PERFORMER “Deep Purple”
TITLE “California Jamming (1996, 724383833429)”
FILE “Deep Purple – California Jamming.flac” WAVE
TRACK 01 AUDIO
TITLE “Burn”
PERFORMER “Deep Purple”
INDEX 00 00:00:00
INDEX 01 00:00:33
TRACK 02 AUDIO
TITLE “Might Just Take Your Life”
PERFORMER “Deep Purple”
INDEX 01 06:21:33
TRACK 03 AUDIO
TITLE “Mistreated”
PERFORMER “Deep Purple”
INDEX 01 11:02:33
TRACK 04 AUDIO
TITLE “Smoke On The Water”
PERFORMER “Deep Purple”
INDEX 01 21:16:08
TRACK 05 AUDIO
TITLE “You Fool No One / The Mule”
PERFORMER “Deep Purple”
INDEX 01 29:42:45
TRACK 06 AUDIO
TITLE “Space Truckin'”
PERFORMER “Deep Purple”
INDEX 01 48:24:70


Leave a Reply

Your email address will not be published. Required fields are marked *

Enter the text from the image below
 

This site uses Akismet to reduce spam. Learn how your comment data is processed.