Deep Purple – Burn (Reissue)




Artist: Deep Purple
Year: 1974/1988
Genre: Rock
Notes: Discogs
Add. Notes: Reissue
Cover incl.: Yes
Encoder: FLAC
Bitrate: ~900 kBit/s (44.1 kHz/16 Bit/s)
Log & Cue incl.: Yes
Size: 301 MB
Password: “slam” (without ” “)


All Downloads/Hosters are compatible

Download 1
KatFile.com
Turbobit.net
FileFactory.com
Rapidgator.net
Download 2
KatFile.com
Turbobit.net
FileFactory.com
Rapidgator.net

Tracklist:

1. Burn
2. Might Just Take Your Life
3. Lay Down, Stay Down
4. Sail Away
5. You Fool No One
6. What's Goin' On Here
7. Mistreated
8. "A" 200

EAC-Log, CUE-Sheed & NFO:

Click to open spoiler
Exact Audio Copy V1.0 beta 3 from 29. August 2011

EAC extraction logfile from 7. July 2013, 16:37

Deep Purple / Burn(CDMID 166161)

Used drive : SONY BD RW BDX-S600U Adapter: 2 ID: 0

Read mode : Secure
Utilize accurate stream : Yes
Defeat audio cache : Yes
Make use of C2 pointers : No

Read offset correction : 48
Overread into Lead-In and Lead-Out : No
Fill up missing offset samples with silence : Yes
Delete leading and trailing silent blocks : No
Null samples used in CRC calculations : Yes
Used interface : Native Win32 interface for Win NT & 2000

Used output format : User Defined Encoder
Selected bitrate : 128 kBit/s
Quality : High
Add ID3 tag : No
Command line compressor : C:\Program Files\Exact Audio Copy\Flac\flac.exe
Additional command line options : -V -8 -T “Date=%year%” -T “Genre=%genre%” %source%

TOC of the extracted CD

Track | Start | Length | Start sector | End sector
———————————————————
1 | 0:00.00 | 5:59.17 | 0 | 26941
2 | 5:59.17 | 4:35.23 | 26942 | 47589
3 | 10:34.40 | 4:15.67 | 47590 | 66781
4 | 14:50.32 | 5:45.13 | 66782 | 92669
5 | 20:35.45 | 4:42.47 | 92670 | 113866
6 | 25:18.17 | 4:55.08 | 113867 | 135999
7 | 30:13.25 | 6:57.07 | 136000 | 167281
8 | 37:10.32 | 4:00.60 | 167282 | 185341

Range status and errors

Selected range

Filename H:\ALIK\Deep Purple Studio Discography\Deep Purple – Burn(CDMID 166161).wav

Peak level 100.0 %
Extraction speed 14.0 X
Range quality 100.0 %
Test CRC 1860EA9B
Copy CRC 1860EA9B
Copy OK

No errors occurred

AccurateRip summary

Track 1 accurately ripped (confidence 2) [2780DE18] (AR v2)
Track 2 accurately ripped (confidence 2) [1B77B43D] (AR v2)
Track 3 accurately ripped (confidence 2) [9C8E7C6C] (AR v2)
Track 4 accurately ripped (confidence 2) [046469CE] (AR v2)
Track 5 accurately ripped (confidence 2) [40B18EB7] (AR v2)
Track 6 accurately ripped (confidence 2) [FB6982CB] (AR v2)
Track 7 accurately ripped (confidence 2) [F7D5A0D6] (AR v2)
Track 8 accurately ripped (confidence 2) [B8903AD1] (AR v2)

All tracks accurately ripped

End of status report

—- CUETools DB Plugin V2.1.3

[CTDB TOCID: m1xHfbeei8BUteKxJcWn0qu0jNg-] found, Submit result: m1xHfbeei8BUteKxJcWn0qu0jNg- has been confirmed
[171b5d49] (5/6) Accurately ripped
[92161a3f] (1/6) No match

==== Log checksum EDB124DAF02FAACF9434D249B95CCB7F4C30C3ADE5AD0E31B92EBD1CACB5C889 ====

REM GENRE Rock
REM DATE 1973
REM DISCID 5B09A708
REM COMMENT “ExactAudioCopy v1.0b3”
PERFORMER “Deep Purple”
TITLE “Burn (1988, CDMID 166161)”
FILE “Deep Purple – Burn(CDMID 166161).flac” WAVE
TRACK 01 AUDIO
TITLE “Burn”
PERFORMER “Deep Purple”
INDEX 01 00:00:00
TRACK 02 AUDIO
TITLE “Might Just Take Your Life”
PERFORMER “Deep Purple”
INDEX 01 05:59:17
TRACK 03 AUDIO
TITLE “Lay Down, Stay Down”
PERFORMER “Deep Purple”
INDEX 01 10:34:40
TRACK 04 AUDIO
TITLE “Sail Away”
PERFORMER “Deep Purple”
INDEX 01 14:50:32
TRACK 05 AUDIO
TITLE “You Fool No One”
PERFORMER “Deep Purple”
INDEX 01 20:35:45
TRACK 06 AUDIO
TITLE “What’s Goin’ On Here”
PERFORMER “Deep Purple”
INDEX 01 25:18:17
TRACK 07 AUDIO
TITLE “Mistreated”
PERFORMER “Deep Purple”
INDEX 01 30:13:25
TRACK 08 AUDIO
TITLE “‘A’ 200”
PERFORMER “Deep Purple”
INDEX 01 37:10:32


Leave a Reply

Your email address will not be published. Required fields are marked *

This site uses Akismet to reduce spam. Learn how your comment data is processed.