Deep Purple – Burn (Limited Remastered Japanese Edition)




No Cover available

Artist: Deep Purple
Year: 1974/2008
Genre: Rock
Notes: Discogs
Add. Notes: Limited Remastered Japanese Edition
Watch Songs on: YouTube
Cover incl.: Yes
Encoder: FLAC
Bitrate: ~1000 kBit/s (44.1 kHz/16 Bit/s)
Log & Cue incl.: Yes
Size: 342,6 MB
Password: “slam” (without ” “)


All Downloads/Hosters are compatible

Download 1
KatFile.com
Turbobit.net
FileFactory.com
Rapidgator.net
Download 2
KatFile.com
Turbobit.net
FileFactory.com
Rapidgator.net

Tracklist:

1 - Burn - 6:00
2 - Might Just Take Your Life - 4:36
3 - Lay Down, Stay Down - 4:15
4 - Sail Away - 5:48
5 - You Fool No One - 4:47
6 - What's Goin' On Here - 4:55
7 - Mistreated - 7:25
8 - "A" 200 - 3:51

EAC-Log, CUE-Sheed & NFO:

Click to open spoiler
Exact Audio Copy V1.0 beta 4 from 7. December 2014

EAC extraction logfile from 29. January 2015, 20:23

Deep Purple / Burn (1996, SHM-CD, WPCR-13115)

Used drive : ATAPI iHAS124 B Adapter: 1 ID: 0

Read mode : Secure
Utilize accurate stream : Yes
Defeat audio cache : Yes
Make use of C2 pointers : No

Read offset correction : 6
Overread into Lead-In and Lead-Out : No
Fill up missing offset samples with silence : Yes
Delete leading and trailing silent blocks : No
Null samples used in CRC calculations : Yes
Used interface : Installed external ASPI interface

Used output format : User Defined Encoder
Selected bitrate : 128 kBit/s
Quality : High
Add ID3 tag : Yes
Command line compressor : C:\Program Files (x86)\Exact Audio Copy\Flac\flac.exe
Additional command line options : -V -8 -T “Date=%year%” -T “Genre=%genre%” %source%

TOC of the extracted CD

Track | Start | Length | Start sector | End sector
———————————————————
1 | 0:00.00 | 6:03.47 | 0 | 27271
2 | 6:03.47 | 4:40.13 | 27272 | 48284
3 | 10:43.60 | 4:21.00 | 48285 | 67859
4 | 15:04.60 | 5:50.67 | 67860 | 94176
5 | 20:55.52 | 4:48.13 | 94177 | 115789
6 | 25:43.65 | 4:58.20 | 115790 | 138159
7 | 30:42.10 | 7:30.00 | 138160 | 171909
8 | 38:12.10 | 4:05.70 | 171910 | 190354

Range status and errors

Selected range

Filename G:\CD\Deep Purple – Burn.wav

Peak level 100.0 %
Extraction speed 5.2 X
Range quality 100.0 %
Test CRC A2D9DD85
Copy CRC A2D9DD85
Copy OK

No errors occurred

AccurateRip summary

Track 1 accurately ripped (confidence 12) [7281530A] (AR v2)
Track 2 accurately ripped (confidence 12) [93C7A336] (AR v2)
Track 3 accurately ripped (confidence 12) [22B104D8] (AR v2)
Track 4 accurately ripped (confidence 12) [92AE7AF9] (AR v2)
Track 5 accurately ripped (confidence 12) [A8030B95] (AR v2)
Track 6 accurately ripped (confidence 12) [F89BFF6A] (AR v2)
Track 7 accurately ripped (confidence 12) [DDA65B5D] (AR v2)
Track 8 accurately ripped (confidence 11) [0B5F8726] (AR v2)

All tracks accurately ripped

End of status report

—- CUETools DB Plugin V2.1.4

[CTDB TOCID: lLosYznUjZgpeshTN4bjBe7e330-] found
Submit result: lLosYznUjZgpeshTN4bjBe7e330- has been confirmed
Track | CTDB Status
1 | (11/23) Accurately ripped
2 | (11/23) Accurately ripped
3 | (11/23) Accurately ripped
4 | (11/23) Accurately ripped
5 | (11/23) Accurately ripped
6 | (11/23) Accurately ripped
7 | (10/23) Accurately ripped
8 | (10/23) Accurately ripped

==== Log checksum C7FB09DBED3CAC5868B64D3DD6240B06EC35C695A9717CC1172397A4AAF49927 ====

REM GENRE “Hard Rock”
REM DATE 1974
REM DISCID 6E09EA08
REM COMMENT “ExactAudioCopy v1.0b4”
CATALOG 4943674056477
PERFORMER “Deep Purple”
TITLE “Burn (2008, SHM-CD, WPCR-13115)”
FILE “Deep Purple – Burn.flac” WAVE
TRACK 01 AUDIO
TITLE “Burn”
PERFORMER “Deep Purple”
INDEX 01 00:00:00
TRACK 02 AUDIO
TITLE “Might Just Take Your Life”
PERFORMER “Deep Purple”
INDEX 00 06:00:42
INDEX 01 06:03:47
TRACK 03 AUDIO
TITLE “Lay Down, Stay Down”
PERFORMER “Deep Purple”
INDEX 00 10:40:15
INDEX 01 10:43:60
TRACK 04 AUDIO
TITLE “Sail Away”
PERFORMER “Deep Purple”
INDEX 00 15:01:10
INDEX 01 15:04:60
TRACK 05 AUDIO
TITLE “You Fool No One”
PERFORMER “Deep Purple”
INDEX 00 20:53:15
INDEX 01 20:55:52
TRACK 06 AUDIO
TITLE “What’s Goin’ On Here”
PERFORMER “Deep Purple”
INDEX 00 25:41:12
INDEX 01 25:43:65
TRACK 07 AUDIO
TITLE “Mistreated”
PERFORMER “Deep Purple”
INDEX 00 30:40:05
INDEX 01 30:42:10
TRACK 08 AUDIO
TITLE “‘A’ 200”
PERFORMER “Deep Purple”
INDEX 00 38:09:15
INDEX 01 38:12:10


Leave a Reply

Your email address will not be published. Required fields are marked *

This site uses Akismet to reduce spam. Learn how your comment data is processed.