Deep Purple – Bananas




Artist: Deep Purple
Year: 2003
Genre: Rock
Notes: Discogs
Add. Notes:
Encoder: FLAC
Bitrate: ~900 kBit/s (44.1 kHz/16 Bit/s)
Size: 444 MB
Password: “slam” (without ” “)


http://www.share-online.biz/dl/BMUCQWPPXVJ http://www.share-online.biz/dl/MUTCQWPPDH
https://rapidgator.net/file/009ed3ccb92c3cb956a32eb26af83f49/DeePur-Bana.part1.rar https://rapidgator.net/file/de0b7e54b66ffda88e7eaefbdbf52008/DeePur-Bana.part2.rar
https://ayefiles.com/kqyzb0347iz5/DeePur-Bana.part1.rar.html https://ayefiles.com/6rmrpkj44ko2/DeePur-Bana.part2.rar.html
Onlinestatus: Turbobit.net Rapidgator.net AyeFiles.com

Tracklist:

1 - House Of Pain  
2 - Sun Goes Down  
3 - Haunted  
4 - Razzle Dazzle  
5 - Silver Tongue  
6 - Walk On  
7 - Picture Of Innocence  
8 - I Got Your Number  
9 - Never A Word  
10 - Bananas  
11 - Doing It Tonight  
12 - Contact Lost

EAC-Log, CUE-Sheed & NFO:

Click to open spoiler
Exact Audio Copy V1.0 beta 3 from 29. August 2011

EAC extraction logfile from 19. July 2013, 0:06

Deep Purple / Bananas

Used drive : Optiarc BD RW BD-5300S Adapter: 0 ID: 1

Read mode : Secure
Utilize accurate stream : Yes
Defeat audio cache : Yes
Make use of C2 pointers : No

Read offset correction : 6
Overread into Lead-In and Lead-Out : No
Fill up missing offset samples with silence : Yes
Delete leading and trailing silent blocks : No
Null samples used in CRC calculations : Yes
Used interface : Native Win32 interface for Win NT & 2000

Used output format : User Defined Encoder
Selected bitrate : 1024 kBit/s
Quality : High
Add ID3 tag : No
Command line compressor : C:\Program Files (x86)\Exact Audio Copy\FLAC\FLAC.EXE
Additional command line options : -8 -V -T “ARTIST=%artist%” -T “TITLE=%title%” -T “ALBUM=%albumtitle%” -T “DATE=%year%” -T “TRACKNUMBER=%tracknr%” -T “GENRE=%genre%” -T “PERFORMER=%albuminterpret%” -T “COMPOSER=%composer%” %haslyrics%–tag-from-file=LYRICS=”%lyricsfile%”%haslyrics% -T “ALBUMARTIST=%albumartist%” -T “DISCNUMBER=%cdnumber%” -T “TOTALDISCS=%totalcds%” -T “TOTALTRACKS=%numtracks%” -T “COMMENT=%comment%” %source% -o %dest%

TOC of the extracted CD

Track | Start | Length | Start sector | End sector
———————————————————
1 | 0:00.00 | 3:34.05 | 0 | 16054
2 | 3:34.05 | 4:10.51 | 16055 | 34855
3 | 7:44.56 | 4:22.36 | 34856 | 54541
4 | 12:07.17 | 3:28.48 | 54542 | 70189
5 | 15:35.65 | 4:04.22 | 70190 | 88511
6 | 19:40.12 | 7:03.70 | 88512 | 120306
7 | 26:44.07 | 5:11.30 | 120307 | 143661
8 | 31:55.37 | 6:01.30 | 143662 | 170766
9 | 37:56.67 | 3:46.45 | 170767 | 187761
10 | 41:43.37 | 4:50.71 | 187762 | 209582
11 | 46:34.33 | 3:29.02 | 209583 | 225259
12 | 50:03.35 | 1:27.35 | 225260 | 231819

Range status and errors

Selected range

Filename G:\CD\Deep Purple – Bananas.wav

Peak level 98.5 %
Extraction speed 7.0 X
Range quality 99.9 %
Test CRC FC26A675
Copy CRC FC26A675
Copy OK

No errors occurred

AccurateRip summary

Track 1 accurately ripped (confidence 3) [BD1F3ECB] (AR v2)
Track 2 accurately ripped (confidence 3) [A9195761] (AR v2)
Track 3 accurately ripped (confidence 3) [476DEBDE] (AR v2)
Track 4 accurately ripped (confidence 3) [A664F0F1] (AR v2)
Track 5 accurately ripped (confidence 3) [085E8D03] (AR v2)
Track 6 accurately ripped (confidence 3) [32BD09B3] (AR v2)
Track 7 accurately ripped (confidence 3) [94294747] (AR v2)
Track 8 accurately ripped (confidence 3) [E9F4E2B7] (AR v2)
Track 9 accurately ripped (confidence 3) [FBC4A289] (AR v2)
Track 10 accurately ripped (confidence 3) [843BF600] (AR v2)
Track 11 accurately ripped (confidence 3) [C7486AC4] (AR v2)
Track 12 accurately ripped (confidence 3) [6C30F74B] (AR v2)

All tracks accurately ripped

End of status report

==== Log checksum 0B00B730CB73896AEA4A491E689BE43AD1DC9ACAC934E5FDF2D8F6F4EAE7CDA9 ====

REM GENRE Rock
REM DATE 2003
REM DISCID AA0C120C
REM COMMENT “ExactAudioCopy v1.0b3”
PERFORMER “Deep Purple”
TITLE “Bananas (2003, 724359104928)”
FILE “Deep Purple – Bananas.flac” WAVE
TRACK 01 AUDIO
TITLE “House Of Pain”
PERFORMER “Deep Purple”
INDEX 01 00:00:00
TRACK 02 AUDIO
TITLE “Sun Goes Down”
PERFORMER “Deep Purple”
INDEX 01 03:34:05
TRACK 03 AUDIO
TITLE “Haunted”
PERFORMER “Deep Purple”
INDEX 01 07:44:56
TRACK 04 AUDIO
TITLE “Razzle Dazzle”
PERFORMER “Deep Purple”
INDEX 01 12:07:17
TRACK 05 AUDIO
TITLE “Silver Tongue”
PERFORMER “Deep Purple”
INDEX 01 15:35:65
TRACK 06 AUDIO
TITLE “Walk On”
PERFORMER “Deep Purple”
INDEX 01 19:40:12
TRACK 07 AUDIO
TITLE “Picture Of Innocence”
PERFORMER “Deep Purple”
INDEX 01 26:44:07
TRACK 08 AUDIO
TITLE “I Got Your Number”
PERFORMER “Deep Purple”
INDEX 01 31:55:37
TRACK 09 AUDIO
TITLE “Never A Word”
PERFORMER “Deep Purple”
INDEX 01 37:56:67
TRACK 10 AUDIO
TITLE “Bananas”
PERFORMER “Deep Purple”
INDEX 01 41:43:37
TRACK 11 AUDIO
TITLE “Doing It Tonight”
PERFORMER “Deep Purple”
INDEX 01 46:34:33
TRACK 12 AUDIO
TITLE “Contact Lost”
PERFORMER “Deep Purple”
INDEX 01 50:03:35

Leave a Reply

Your email address will not be published. Required fields are marked *

This site uses Akismet to reduce spam. Learn how your comment data is processed.