Deep Purple – Abandon




Artist: Deep Purple
Year: 1998
Genre: Rock
Notes: Discogs
Add. Notes:
Encoder: FLAC
Bitrate: ~1000 kBit/s (44.1 kHz/16 Bit/s)
Size: 445 MB
Password: “slam” (without ” “)


http://www.share-online.biz/dl/4MSCQWPPVBZ http://www.share-online.biz/dl/6UTCQWPPMC6
https://rapidgator.net/file/316e3a90226051d8825d3390475269f4/DeePur-Aban.part1.rar https://rapidgator.net/file/5d720fb51c40454f273b8a54e5643323/DeePur-Aban.part2.rar
https://ayefiles.com/rcyq8u5yygou/DeePur-Aban.part1.rar.html https://ayefiles.com/qo9pkynnr6tu/DeePur-Aban.part2.rar.html
Onlinestatus: Turbobit.net Rapidgator.net AyeFiles.com

Tracklist:

1 - Any Fule Kno That - 4:27
2 - Almost Human - 4:23
3 - Dont Make Me Happy - 4:55
4 - Seventh Heaven - 5:22
5 - Watching The Sky - 5:22
6 - Fingers To The Bone - 4:45
7 - Jack Ruby - 3:47
8 - She Was - 4:16
9 - Whatsername - 4:26
10 - 69 - 4:57
11 - Evil Louie - 4:53
12 - Bludsucker - 4:27

EAC-Log, CUE-Sheed & NFO:

Click to open spoiler
Exact Audio Copy V1.0 beta 3 from 29. August 2011

EAC extraction logfile from 9. July 2013, 22:00

Deep Purple / Abandon

Used drive : ATAPI iHAS124 B Adapter: 2 ID: 0

Read mode : Secure
Utilize accurate stream : Yes
Defeat audio cache : Yes
Make use of C2 pointers : No

Read offset correction : 6
Overread into Lead-In and Lead-Out : No
Fill up missing offset samples with silence : Yes
Delete leading and trailing silent blocks : No
Null samples used in CRC calculations : Yes
Used interface : Native Win32 interface for Win NT & 2000

Used output format : User Defined Encoder
Selected bitrate : 1024 kBit/s
Quality : High
Add ID3 tag : No
Command line compressor : C:\Program Files (x86)\Exact Audio Copy\FLAC\FLAC.EXE
Additional command line options : -8 -V -T “ARTIST=%artist%” -T “TITLE=%title%” -T “ALBUM=%albumtitle%” -T “DATE=%year%” -T “TRACKNUMBER=%tracknr%” -T “GENRE=%genre%” -T “PERFORMER=%albuminterpret%” -T “COMPOSER=%composer%” %haslyrics%–tag-from-file=LYRICS=”%lyricsfile%”%haslyrics% -T “ALBUMARTIST=%albumartist%” -T “DISCNUMBER=%cdnumber%” -T “TOTALDISCS=%totalcds%” -T “TOTALTRACKS=%numtracks%” -T “COMMENT=%comment%” %source% -o %dest%

TOC of the extracted CD

Track | Start | Length | Start sector | End sector
———————————————————
1 | 0:00.00 | 4:27.52 | 0 | 20076
2 | 4:27.52 | 4:26.08 | 20077 | 40034
3 | 8:53.60 | 4:55.52 | 40035 | 62211
4 | 13:49.37 | 5:24.50 | 62212 | 86561
5 | 19:14.12 | 5:25.65 | 86562 | 111001
6 | 24:40.02 | 4:47.03 | 111002 | 132529
7 | 29:27.05 | 3:48.35 | 132530 | 149664
8 | 33:15.40 | 4:19.50 | 149665 | 169139
9 | 37:35.15 | 4:26.25 | 169140 | 189114
10 | 42:01.40 | 4:59.12 | 189115 | 211551
11 | 47:00.52 | 4:55.53 | 211552 | 233729
12 | 51:56.30 | 4:27.20 | 233730 | 253774

Range status and errors

Selected range

Filename G:\CD\Deep Purple – Abandon.wav

Peak level 99.8 %
Extraction speed 5.8 X
Range quality 100.0 %
Test CRC 1A59B75F
Copy CRC 1A59B75F
Copy OK

No errors occurred

AccurateRip summary

Track 1 accurately ripped (confidence 12) [C6E2029F] (AR v2)
Track 2 accurately ripped (confidence 12) [4908BBA9] (AR v2)
Track 3 accurately ripped (confidence 12) [6CAAFEAD] (AR v2)
Track 4 accurately ripped (confidence 12) [DF22E711] (AR v2)
Track 5 accurately ripped (confidence 12) [9E42005F] (AR v2)
Track 6 accurately ripped (confidence 12) [A90C736E] (AR v2)
Track 7 accurately ripped (confidence 12) [7A76D485] (AR v2)
Track 8 accurately ripped (confidence 12) [AF1330AB] (AR v2)
Track 9 accurately ripped (confidence 12) [38101172] (AR v2)
Track 10 accurately ripped (confidence 10) [E860A44A] (AR v2)
Track 11 accurately ripped (confidence 12) [9EA36F31] (AR v2)
Track 12 accurately ripped (confidence 12) [BA6CC2F8] (AR v2)

All tracks accurately ripped

End of status report

==== Log checksum 675DFA1DB633772CB1444052200F41DE92CF6B71E3C15931A1F8A25794B867EC ====

REM GENRE “Hard Rock”
REM DATE 1998
REM DISCID B00D370C
REM COMMENT “ExactAudioCopy v1.0b3”
PERFORMER “Deep Purple”
TITLE “Abandon (1998, 724349530621)”
FILE “Deep Purple – Abandon.flac” WAVE
TRACK 01 AUDIO
TITLE “Any Fule Kno That”
PERFORMER “Deep Purple”
INDEX 01 00:00:00
TRACK 02 AUDIO
TITLE “Almost Human”
PERFORMER “Deep Purple”
INDEX 00 04:27:02
INDEX 01 04:27:52
TRACK 03 AUDIO
TITLE “Don’t Make Me Happy”
PERFORMER “Deep Purple”
INDEX 00 08:51:40
INDEX 01 08:53:60
TRACK 04 AUDIO
TITLE “Seventh Heaven”
PERFORMER “Deep Purple”
INDEX 00 13:49:32
INDEX 01 13:49:37
TRACK 05 AUDIO
TITLE “Watching The Sky”
PERFORMER “Deep Purple”
INDEX 00 19:12:45
INDEX 01 19:14:12
TRACK 06 AUDIO
TITLE “Fingers To The Bone”
PERFORMER “Deep Purple”
INDEX 00 24:36:42
INDEX 01 24:40:02
TRACK 07 AUDIO
TITLE “Jack Ruby”
PERFORMER “Deep Purple”
INDEX 00 29:24:57
INDEX 01 29:27:05
TRACK 08 AUDIO
TITLE “She Was”
PERFORMER “Deep Purple”
INDEX 00 33:14:35
INDEX 01 33:15:40
TRACK 09 AUDIO
TITLE “Whatsername”
PERFORMER “Deep Purple”
INDEX 00 37:32:72
INDEX 01 37:35:15
TRACK 10 AUDIO
TITLE “’69”
PERFORMER “Deep Purple”
INDEX 00 42:01:15
INDEX 01 42:01:40
TRACK 11 AUDIO
TITLE “Evil Louie”
PERFORMER “Deep Purple”
INDEX 00 46:59:10
INDEX 01 47:00:52
TRACK 12 AUDIO
TITLE “Bludsucker”
PERFORMER “Deep Purple”
INDEX 00 51:54:02
INDEX 01 51:56:30

Leave a Reply

Your email address will not be published. Required fields are marked *

This site uses Akismet to reduce spam. Learn how your comment data is processed.