Deep Purple – 30: Very Best Of (Remastered)




Artist: Deep Purple
Year: 1998
Genre: Rock
Notes: Discogs
Add. Notes: Remastered
Encoder: FLAC
Bitrate: ~900 kBit/s (44.1 kHz/16 Bit/s)
Size: 520 MB
Password: “slam” (without ” “)


http://www.share-online.biz/dl/MRW02YPP0XW http://www.share-online.biz/dl/U6S02YPPM1C http://www.share-online.biz/dl/YCX02YPP9L
https://rapidgator.net/file/d6350d0ecd4e49263c2fe2905797f1a7/DeePur-1998-VerBesOf.part1.rar https://rapidgator.net/file/dfc6b544639978d8c92efc3649d49663/DeePur-1998-VerBesOf.part2.rar https://rapidgator.net/file/6c8d296f642efd14293860c381dd8f33/DeePur-1998-VerBesOf.part3.rar
https://ayefiles.com/ji5djmllld88/DeePur-1998-VerBesOf.part1.rar.html https://ayefiles.com/l01ubgctllp4/DeePur-1998-VerBesOf.part2.rar.html https://ayefiles.com/mx3m9dpkk911/DeePur-1998-VerBesOf.part3.rar.html
Onlinestatus: Turbobit.net Rapidgator.net AyeFiles.com

Tracklist:

1 - Hush (30th Anniversary 
Remaster) - 4:29
2 - Black Night (Single Version 
Remaster) - 3:29
3 - Speed King (Single Version) - 4:28
4 - Child In Time (Single Edit) - 4:15
5 - Strange Kind Of Woman (Single 
Version) - 3:54
6 - Fireball - 3:26
7 - Demon's Eye - 5:23
8 - Smoke On The Water (25th 
Anniversary Remaster) - 
5:43
9 - Highway Star ('97 Remix) - 6:33
10 - When A Blind Man Cries ('97 
Remix) - 3:32
11 - Never Before (Single Edit) - 3:30
12 - Woman From Tokyo (Single 
Edit) - 2:48
13 - Burn (Single Edit) - 4:33
14 - Stormbringer - 4:08
15 - You Keep On Moving (Single 
Edit) - 4:30
16 - Perfect Strangers (Single 
Version) - 4:16
17 - Ted The Mechanic - 4:19
18 - Any Fule Kno That - 4:28

EAC-Log, CUE-Sheed & NFO:

Click to open spoiler
EAC extraction logfile from 24. July 2007, 15:09 for CD
Deep Purple / Deep Purple 30: Very Best Of

Used drive : HL-DT-STDVD-ROM GDR8163B Adapter: 1 ID: 0
Read mode : Secure with NO C2, accurate stream, disable cache
Read offset correction : 102
Overread into Lead-In and Lead-Out : No

Used output format : D:\Programfiler\Exact Audio Copy\flac.exe (User Defined Encoder)
192 kBit/s
Additional command line options : -V -5 -T “artist=%a” -T “title=%t” -T “album=%g” -T “date=%y” -T “tracknumber=%n” -T “genre=%m” %s

Other options :
Fill up missing offset samples with silence : Yes
Delete leading and trailing silent blocks : No
Native Win32 interface for Win NT & 2000

Track 1
Filename D:\Musikk\ripped cds\eac\Deep Purple 30, Very Best Of\01 – Deep Purple – Hush.wav

Pre-gap length 0:00:02.00

Peak level 99.3 %
Track quality 100.0 %
Test CRC 4B3AB15D
Copy CRC 4B3AB15D
Copy OK

Track 2
Filename D:\Musikk\ripped cds\eac\Deep Purple 30, Very Best Of\02 – Deep Purple – Black Night.wav

Pre-gap length 0:00:02.40

Peak level 99.6 %
Track quality 100.0 %
Test CRC 01D1EC8B
Copy CRC 01D1EC8B
Copy OK

Track 3
Filename D:\Musikk\ripped cds\eac\Deep Purple 30, Very Best Of\03 – Deep Purple – Speed King.wav

Pre-gap length 0:00:02.30

Peak level 94.6 %
Track quality 100.0 %
Test CRC A9E3222E
Copy CRC A9E3222E
Copy OK

Track 4
Filename D:\Musikk\ripped cds\eac\Deep Purple 30, Very Best Of\04 – Deep Purple – Child In Time.wav

Pre-gap length 0:00:02.66

Peak level 98.0 %
Track quality 100.0 %
Test CRC D2B4EBEC
Copy CRC D2B4EBEC
Copy OK

Track 5
Filename D:\Musikk\ripped cds\eac\Deep Purple 30, Very Best Of\05 – Deep Purple – Strange Kind Of Woman.wav

Pre-gap length 0:00:01.80

Peak level 85.9 %
Track quality 100.0 %
Test CRC 80EC960F
Copy CRC 80EC960F
Copy OK

Track 6
Filename D:\Musikk\ripped cds\eac\Deep Purple 30, Very Best Of\06 – Deep Purple – Fireball.wav

Pre-gap length 0:00:02.20

Peak level 91.5 %
Track quality 99.9 %
Test CRC 9AD0EB22
Copy CRC 9AD0EB22
Copy OK

Track 7
Filename D:\Musikk\ripped cds\eac\Deep Purple 30, Very Best Of\07 – Deep Purple – Demon’s Eye.wav

Pre-gap length 0:00:02.60

Peak level 96.8 %
Track quality 100.0 %
Test CRC 44C1BF9E
Copy CRC 44C1BF9E
Copy OK

Track 8
Filename D:\Musikk\ripped cds\eac\Deep Purple 30, Very Best Of\08 – Deep Purple – Smoke On The Water.wav

Pre-gap length 0:00:02.56

Peak level 90.5 %
Track quality 100.0 %
Test CRC FA6BE965
Copy CRC FA6BE965
Copy OK

Track 9
Filename D:\Musikk\ripped cds\eac\Deep Purple 30, Very Best Of\09 – Deep Purple – Highway Star.wav

Pre-gap length 0:00:02.17

Peak level 79.3 %
Track quality 100.0 %
Test CRC 0D566CCB
Copy CRC 0D566CCB
Copy OK

Track 10
Filename D:\Musikk\ripped cds\eac\Deep Purple 30, Very Best Of\10 – Deep Purple – When A Blind Man Cries.wav

Pre-gap length 0:00:02.53

Peak level 78.0 %
Track quality 100.0 %
Test CRC AA9DA9FE
Copy CRC AA9DA9FE
Copy OK

Track 11
Filename D:\Musikk\ripped cds\eac\Deep Purple 30, Very Best Of\11 – Deep Purple – Never Before.wav

Pre-gap length 0:00:02.90

Peak level 99.6 %
Track quality 100.0 %
Test CRC 76DB816F
Copy CRC 76DB816F
Copy OK

Track 12
Filename D:\Musikk\ripped cds\eac\Deep Purple 30, Very Best Of\12 – Deep Purple – Woman From Tokyo.wav

Pre-gap length 0:00:02.26

Peak level 99.1 %
Track quality 100.0 %
Test CRC 7A3D772F
Copy CRC 7A3D772F
Copy OK

Track 13
Filename D:\Musikk\ripped cds\eac\Deep Purple 30, Very Best Of\13 – Deep Purple – Burn.wav

Pre-gap length 0:00:02.33

Peak level 98.8 %
Track quality 100.0 %
Test CRC 88BEB0F0
Copy CRC 88BEB0F0
Copy OK

Track 14
Filename D:\Musikk\ripped cds\eac\Deep Purple 30, Very Best Of\14 – Deep Purple – Stormbringer.wav

Pre-gap length 0:00:01.86

Peak level 98.8 %
Track quality 100.0 %
Test CRC D986D38A
Copy CRC D986D38A
Copy OK

Track 15
Filename D:\Musikk\ripped cds\eac\Deep Purple 30, Very Best Of\15 – Deep Purple – You Keep On Moving.wav

Pre-gap length 0:00:02.10

Peak level 92.5 %
Track quality 100.0 %
Test CRC BD8E072A
Copy CRC BD8E072A
Copy OK

Track 16
Filename D:\Musikk\ripped cds\eac\Deep Purple 30, Very Best Of\16 – Deep Purple – Perfect Strangers.wav

Pre-gap length 0:00:02.02

Peak level 81.3 %
Track quality 100.0 %
Test CRC 677DCCA9
Copy CRC 677DCCA9
Copy OK

Track 17
Filename D:\Musikk\ripped cds\eac\Deep Purple 30, Very Best Of\17 – Deep Purple – Ted The Mechanic.wav

Pre-gap length 0:00:02.70

Peak level 83.1 %
Track quality 99.9 %
Test CRC F24662B8
Copy CRC F24662B8
Copy OK

Track 18
Filename D:\Musikk\ripped cds\eac\Deep Purple 30, Very Best Of\18 – Deep Purple – Any Fule Kno That.wav

Pre-gap length 0:00:02.70

Peak level 91.4 %
Track quality 100.0 %
Test CRC 1C5D344C
Copy CRC 1C5D344C
Copy OK

No errors occured

End of status report

REM GENRE “Hard Rock”
REM DATE 1998
REM DISCID F3123712
REM COMMENT “ExactAudioCopy v0.95b3”
PERFORMER “Deep Purple”
TITLE “Deep Purple 30: Very Best Of”
FILE “01 – Deep Purple – Hush.wav” WAVE
TRACK 01 AUDIO
TITLE “Hush”
PERFORMER “Deep Purple”
INDEX 01 00:00:00
TRACK 02 AUDIO
TITLE “Black Night”
PERFORMER “Deep Purple”
INDEX 00 04:26:10
FILE “02 – Deep Purple – Black Night.wav” WAVE
INDEX 01 00:00:00
TRACK 03 AUDIO
TITLE “Speed King”
PERFORMER “Deep Purple”
INDEX 00 03:27:07
FILE “03 – Deep Purple – Speed King.wav” WAVE
INDEX 01 00:00:00
TRACK 04 AUDIO
TITLE “Child In Time”
PERFORMER “Deep Purple”
INDEX 00 04:25:05
FILE “04 – Deep Purple – Child In Time.wav” WAVE
INDEX 01 00:00:00
TRACK 05 AUDIO
TITLE “Strange Kind Of Woman”
PERFORMER “Deep Purple”
INDEX 00 04:13:22
FILE “05 – Deep Purple – Strange Kind Of Woman.wav” WAVE
INDEX 01 00:00:00
TRACK 06 AUDIO
TITLE “Fireball”
PERFORMER “Deep Purple”
INDEX 00 03:51:50
FILE “06 – Deep Purple – Fireball.wav” WAVE
INDEX 01 00:00:00
TRACK 07 AUDIO
TITLE “Demon’s Eye”
PERFORMER “Deep Purple”
INDEX 00 03:23:45
FILE “07 – Deep Purple – Demon’s Eye.wav” WAVE
INDEX 01 00:00:00
TRACK 08 AUDIO
TITLE “Smoke On The Water”
PERFORMER “Deep Purple”
INDEX 00 05:20:08
FILE “08 – Deep Purple – Smoke On The Water.wav” WAVE
INDEX 01 00:00:00
TRACK 09 AUDIO
TITLE “Highway Star”
PERFORMER “Deep Purple”
INDEX 00 05:41:20
FILE “09 – Deep Purple – Highway Star.wav” WAVE
INDEX 01 00:00:00
TRACK 10 AUDIO
TITLE “When A Blind Man Cries”
PERFORMER “Deep Purple”
INDEX 00 06:30:15
FILE “10 – Deep Purple – When A Blind Man Cries.wav” WAVE
INDEX 01 00:00:00
TRACK 11 AUDIO
TITLE “Never Before”
PERFORMER “Deep Purple”
INDEX 00 03:28:47
FILE “11 – Deep Purple – Never Before.wav” WAVE
INDEX 01 00:00:00
TRACK 12 AUDIO
TITLE “Woman From Tokyo”
PERFORMER “Deep Purple”
INDEX 00 03:27:60
FILE “12 – Deep Purple – Woman From Tokyo.wav” WAVE
INDEX 01 00:00:00
TRACK 13 AUDIO
TITLE “Burn”
PERFORMER “Deep Purple”
INDEX 00 02:45:32
FILE “13 – Deep Purple – Burn.wav” WAVE
INDEX 01 00:00:00
TRACK 14 AUDIO
TITLE “Stormbringer”
PERFORMER “Deep Purple”
INDEX 00 04:31:35
FILE “14 – Deep Purple – Stormbringer.wav” WAVE
INDEX 01 00:00:00
TRACK 15 AUDIO
TITLE “You Keep On Moving”
PERFORMER “Deep Purple”
INDEX 00 04:05:55
FILE “15 – Deep Purple – You Keep On Moving.wav” WAVE
INDEX 01 00:00:00
TRACK 16 AUDIO
TITLE “Perfect Strangers”
PERFORMER “Deep Purple”
INDEX 00 04:28:00
FILE “16 – Deep Purple – Perfect Strangers.wav” WAVE
INDEX 01 00:00:00
TRACK 17 AUDIO
TITLE “Ted The Mechanic”
PERFORMER “Deep Purple”
INDEX 00 04:13:50
FILE “17 – Deep Purple – Ted The Mechanic.wav” WAVE
INDEX 01 00:00:00
TRACK 18 AUDIO
TITLE “Any Fule Kno That”
PERFORMER “Deep Purple”
INDEX 00 04:16:47
FILE “18 – Deep Purple – Any Fule Kno That.wav” WAVE
INDEX 01 00:00:00

Leave a Reply

Your email address will not be published. Required fields are marked *

This site uses Akismet to reduce spam. Learn how your comment data is processed.