Deep Purple – 24 Carat Purple (Reissue)




Artist: Deep Purple
Year: 1975/2001
Genre: Rock
Notes: Discogs
Add. Notes: Reissue
Cover incl.: Yes
Encoder: FLAC
Bitrate: ~900 kBit/s (44.1 kHz/16 Bit/s)
Log & Cue incl.: Yes
Size: 386,91 MB
Password: “slam” (without ” “)


All Downloads/Hosters are compatible

Download 1
Turbobit.net
KatFile.com
Rapidgator.net
NitroFlare.com
Download 2
Turbobit.net
KatFile.com
Rapidgator.net
NitroFlare.com

Tracklist:

1. Woman From Tokyo 
2. Fireball 
3. Strange Kind Of Woman 
4. Never Before 
5. Black Night 
6. Speed King 
7. Smoke On The Water 
8. Child In Time

EAC-Log, CUE-Sheed & NFO:

Click to open spoiler
Exact Audio Copy V1.0 beta 3 from 29. August 2011

EAC extraction logfile from 18. July 2013, 22:36

Deep Purple / 24 Carat Purple

Used drive : ATAPI iHAS124 B Adapter: 2 ID: 0

Read mode : Secure
Utilize accurate stream : Yes
Defeat audio cache : Yes
Make use of C2 pointers : No

Read offset correction : 6
Overread into Lead-In and Lead-Out : No
Fill up missing offset samples with silence : Yes
Delete leading and trailing silent blocks : No
Null samples used in CRC calculations : Yes
Used interface : Native Win32 interface for Win NT & 2000

Used output format : User Defined Encoder
Selected bitrate : 1024 kBit/s
Quality : High
Add ID3 tag : No
Command line compressor : C:\Program Files (x86)\Exact Audio Copy\FLAC\FLAC.EXE
Additional command line options : -8 -V -T “ARTIST=%artist%” -T “TITLE=%title%” -T “ALBUM=%albumtitle%” -T “DATE=%year%” -T “TRACKNUMBER=%tracknr%” -T “GENRE=%genre%” -T “PERFORMER=%albuminterpret%” -T “COMPOSER=%composer%” %haslyrics%–tag-from-file=LYRICS=”%lyricsfile%”%haslyrics% -T “ALBUMARTIST=%albumartist%” -T “DISCNUMBER=%cdnumber%” -T “TOTALDISCS=%totalcds%” -T “TOTALTRACKS=%numtracks%” -T “COMMENT=%comment%” %source% -o %dest%

TOC of the extracted CD

Track | Start | Length | Start sector | End sector
———————————————————
1 | 0:00.32 | 5:49.58 | 32 | 26264
2 | 5:50.15 | 3:26.00 | 26265 | 41714
3 | 9:16.15 | 9:14.05 | 41715 | 83269
4 | 18:30.20 | 4:02.12 | 83270 | 101431
5 | 22:32.32 | 4:59.50 | 101432 | 123906
6 | 27:32.07 | 5:52.30 | 123907 | 150336
7 | 33:24.37 | 7:29.60 | 150337 | 184071
8 | 40:54.22 | 12:19.05 | 184072 | 239501

Range status and errors

Selected range

Filename G:\CD\Deep Purple – 24 Carat Purple.wav

Peak level 100.0 %
Extraction speed 6.0 X
Range quality 100.0 %
Test CRC 46F164E2
Copy CRC 46F164E2
Copy OK

No errors occurred

AccurateRip summary

Track 1 accurately ripped (confidence 2) [FEFC490A] (AR v1)
Track 2 accurately ripped (confidence 2) [288E9729] (AR v1)
Track 3 accurately ripped (confidence 2) [3D1EF297] (AR v1)
Track 4 accurately ripped (confidence 2) [80A4E072] (AR v1)
Track 5 accurately ripped (confidence 2) [D03F8F6E] (AR v1)
Track 6 accurately ripped (confidence 2) [3FAEE4F2] (AR v1)
Track 7 accurately ripped (confidence 2) [52B2CDE4] (AR v1)
Track 8 accurately ripped (confidence 2) [0F28A63B] (AR v1)

All tracks accurately ripped

End of status report

==== Log checksum E1F4F20B3A6FC404F71D8D988DEDC13AD789DD3FEF56EDB4B2B033F8517DE9B7 ====

REM GENRE “Hard Rock”
REM DATE 1975
REM DISCID 590C7908
REM COMMENT “ExactAudioCopy v1.0b3”
PERFORMER “Deep Purple”
TITLE “24 Carat Purple (2001, 724353469221)”
FILE “Deep Purple – 24 Carat Purple.flac” WAVE
TRACK 01 AUDIO
TITLE “Woman From Tokyo”
PERFORMER “Deep Purple”
INDEX 00 00:00:00
INDEX 01 00:00:32
TRACK 02 AUDIO
TITLE “Fireball ”
PERFORMER “Deep Purple”
INDEX 00 05:47:25
INDEX 01 05:50:15
TRACK 03 AUDIO
TITLE “Strange Kind Of Woman ”
PERFORMER “Deep Purple”
INDEX 00 09:13:07
INDEX 01 09:16:15
TRACK 04 AUDIO
TITLE “Never Before ”
PERFORMER “Deep Purple”
INDEX 00 18:27:25
INDEX 01 18:30:20
TRACK 05 AUDIO
TITLE “Black Night (Live) ”
PERFORMER “Deep Purple”
INDEX 00 22:29:45
INDEX 01 22:32:32
TRACK 06 AUDIO
TITLE “Speed King – Deep Purple”
PERFORMER “Deep Purple”
INDEX 00 27:28:62
INDEX 01 27:32:07
TRACK 07 AUDIO
TITLE “Smoke On The Water (Live) ”
PERFORMER “Deep Purple”
INDEX 00 33:21:00
INDEX 01 33:24:37
TRACK 08 AUDIO
TITLE “Child In Time (Live) ”
PERFORMER “Deep Purple”
INDEX 00 40:51:50
INDEX 01 40:54:22


Leave a Reply

Your email address will not be published. Required fields are marked *

Enter the text from the image below
 

This site uses Akismet to reduce spam. Learn how your comment data is processed.