Deep Purple – 24 Carat Purple (Reissue)




Artist: Deep Purple
Year: 1975/1989
Genre: Rock
Notes: Discogs
Add. Notes: Reissue
Cover incl.: Yes
Encoder: FLAC
Bitrate: ~900 kBit/s (44.1 kHz/16 Bit/s)
Log & Cue incl.: Yes
Size: 367,2 MB
Password: “slam” (without ” “)


All Downloads/Hosters are compatible

Download 1
KatFile.com
Turbobit.net
FileFactory.com
Rapidgator.net
Download 2
KatFile.com
Turbobit.net
FileFactory.com
Rapidgator.net

Tracklist:

1 - Woman From Tokyo - 5:50
2 - Fireball - 3:23
3 - Strange Kind Of Woman - 9:13
4 - Never Before - 4:00
5 - Black Night - 4:58
6 - Speed King - 5:50
7 - Smoke On The Water - 7:28
8 - Child In Time - 12:20

EAC-Log, CUE-Sheed & NFO:

Click to open spoiler
Exact Audio Copy V0.99 prebeta 5 from 4. May 2009

Отчёт EAC об извлечении, выполненном 13. февраля 2011, 0:09

Deep Purple / 24 Carat Purple

Дисковод: Optiarc DVD RW AD-7240S Adapter: 1 ID: 0

Режим чтения : Достоверность
Использование точного потока : Да
Отключение кэша аудио : Да
Использование указателей C2 : Нет

Коррекция смещения при чтении : 48
Способность читать области Lead-in и Lead-out : Нет
Заполнение пропущенных сэмплов тишиной : Да
Удаление блоков с тишиной в начале и конце : Нет
При вычислениях CRC использовались нулевые сэмплы : Да
Интерфейс : Встроенный Win32-интерфейс для Win NT/2000

Выходной формат : Пользовательский кодировщик
Выбранный битрейт : 768 kBit/s
Качество : Высокий
Добавление ID3-тэга : Нет
Утилита сжатия : C:\Program Files\Exact Audio Copy\FLAC\FLAC.EXE
Дополнительные параметры : -6 -V -T “ARTIST=%a” -T “TITLE=%t” -T “ALBUM=%g” -T “DATE=%y” -T “TRACKNUMBER=%n” -T “GENRE=%m” -T “COMMENT=%e” %s -o %d

TOC извлечённого CD

Трек | Старт | Длительность | Начальный сектор | Конечный сектор
———————————————————————
1 | 0:00.33 | 5:49.57 | 33 | 26264
2 | 5:50.15 | 3:26.00 | 26265 | 41714
3 | 9:16.15 | 9:14.05 | 41715 | 83269
4 | 18:30.20 | 4:02.13 | 83270 | 101432
5 | 22:32.33 | 4:59.50 | 101433 | 123907
6 | 27:32.08 | 5:52.30 | 123908 | 150337
7 | 33:24.38 | 7:29.60 | 150338 | 184072
8 | 40:54.23 | 12:19.05 | 184073 | 239502

Характеристики диапазона извлечения и сообщения об ошибках

Выбранный диапазон

Имя файла E:\music\Deep Purple 1 press\Deep Purple – 24 Carat Purple\Deep Purple – 24 Carat Purple.wav

Пиковый уровень 100.0 %
Качество диапазона 100.0 %
CRC теста 0CB6B305
CRC копии 0CB6B305
Копирование… OK

Ошибок не произошло

AccurateRip: сводка

Трек 1 точное извлечение (доверие 30) [D0498A24]
Трек 2 точное извлечение (доверие 30) [BF19A749]
Трек 3 точное извлечение (доверие 30) [E71317D5]
Трек 4 точное извлечение (доверие 30) [099A6075]
Трек 5 точное извлечение (доверие 29) [B0E22777]
Трек 6 точное извлечение (доверие 30) [6552BAF8]
Трек 7 точное извлечение (доверие 31) [8A43732E]
Трек 8 точное извлечение (доверие 29) [377214C1]

Все треки извлечены точно

Конец отчёта

REM GENRE Metal
REM DATE 1975
REM DISCID 590C7908
REM COMMENT “ExactAudioCopy v0.99pb5”
PERFORMER “Deep Purple”
TITLE “24 Carat Purple (1989, CDM7520202 CD-FA3132)”
FILE “Deep Purple – 24 Carat Purple.flac” WAVE
TRACK 01 AUDIO
TITLE “Woman From Tokyo”
PERFORMER “Deep Purple”
INDEX 00 00:00:00
INDEX 01 00:00:33
TRACK 02 AUDIO
TITLE “Fireball”
PERFORMER “Deep Purple”
INDEX 00 05:47:25
INDEX 01 05:50:15
TRACK 03 AUDIO
TITLE “Strange Kind Of Woman”
PERFORMER “Deep Purple”
INDEX 00 09:13:08
INDEX 01 09:16:15
TRACK 04 AUDIO
TITLE “Never Before”
PERFORMER “Deep Purple”
INDEX 00 18:27:25
INDEX 01 18:30:20
TRACK 05 AUDIO
TITLE “Black Night”
PERFORMER “Deep Purple”
INDEX 00 22:29:45
INDEX 01 22:32:33
TRACK 06 AUDIO
TITLE “Speed King”
PERFORMER “Deep Purple”
INDEX 00 27:28:63
INDEX 01 27:32:08
TRACK 07 AUDIO
TITLE “Smoke On The Water”
PERFORMER “Deep Purple”
INDEX 00 33:21:00
INDEX 01 33:24:38
TRACK 08 AUDIO
TITLE “Child In Time”
PERFORMER “Deep Purple”
INDEX 00 40:51:50
INDEX 01 40:54:23


Leave a Reply

Your email address will not be published. Required fields are marked *

Enter the text from the image below
 

This site uses Akismet to reduce spam. Learn how your comment data is processed.