Deafheaven – Sunbather




Artist: Deafheaven
Year: 2013
Genre: Metal
Notes: Discogs
Add. Notes:
Cover incl.: No
Encoder: FLAC
Bitrate: ~900 kBit/s (44.1 kHz/16 Bit/s)
Log & Cue incl.: No, but seperate Tracks
Size: 397,87 MB
Password: “slam” (without ” “)


All Downloads/Hosters are compatible

Download 1
Turbobit.net
Rapidgator.net
KatFile.com
UploadRar.com
Download 2
Turbobit.net
Rapidgator.net
KatFile.com
UploadRar.com
Download 3
Turbobit.net
Rapidgator.net
KatFile.com
UploadRar.com

Tracklist:

1 - Dream House - 9:14
2 - Irresistible - 3:13
3 - Sunbather - 10:16
4 - Please Remember - 6:26
5 - Vertigo - 14:37
6 - Windows - 4:42
7 - The Pecan Tree - 11:26

EAC-Log, CUE-Sheed & NFO:

Click to open spoiler
X Lossless Decoder version 20130407 (143.0)

XLD extraction logfile from 2013-05-26 16:37:27 -0700

Deafheaven / Sunbather

Used drive : HL-DT-ST DVDRW GX30N (revision RP09)
Media type : Pressed CD

Ripper mode : XLD Secure Ripper
Disable audio cache : OK for the drive with a cache less than 1375KiB
Make use of C2 pointers : NO
Read offset correction : 6
Max retry count : 20
Gap status : Analyzed, Appended

TOC of the extracted CD
Track | Start | Length | Start sector | End sector
———————————————————
1 | 00:00:00 | 09:14:43 | 0 | 41592
2 | 09:14:43 | 03:13:09 | 41593 | 56076
3 | 12:27:52 | 10:16:59 | 56077 | 102335
4 | 22:44:36 | 06:26:13 | 102336 | 131298
5 | 29:10:49 | 14:37:04 | 131299 | 197077
6 | 43:47:53 | 04:42:61 | 197078 | 218288
7 | 48:30:39 | 11:26:69 | 218289 | 269807

AccurateRip Summary
Disc not found in AccurateRip DB.

All Tracks
Album gain : -9.57 dB
Peak : 0.957794
Statistics
Read error : 0
Jitter error (maybe fixed) : 0
Retry sector count : 0
Damaged sector count : 0

Track 01
Filename : /Users/Calque/Downloads/Deafheaven-Sunbather-2013-(FLAC)/01 Deafheaven – Dream House.flac
Pre-gap length : 00:02:00

Track gain : -9.66 dB
Peak : 0.957794
CRC32 hash (test run) : 2125A411
CRC32 hash : 2125A411
CRC32 hash (skip zero) : C078D8A8
AccurateRip v1 signature : C23DD1BE
AccurateRip v2 signature : F90970D5
->Track not present in AccurateRip database.
Statistics
Read error : 0
Jitter error (maybe fixed) : 0
Retry sector count : 0
Damaged sector count : 0

Track 02
Filename : /Users/Calque/Downloads/Deafheaven-Sunbather-2013-(FLAC)/02 Deafheaven – Irresistible.flac

Track gain : -2.22 dB
Peak : 0.771790
CRC32 hash (test run) : 24D06BB1
CRC32 hash : 24D06BB1
CRC32 hash (skip zero) : 9E5021A8
AccurateRip v1 signature : 021EBD25
AccurateRip v2 signature : 7B51AC3B
->Track not present in AccurateRip database.
Statistics
Read error : 0
Jitter error (maybe fixed) : 0
Retry sector count : 0
Damaged sector count : 0

Track 03
Filename : /Users/Calque/Downloads/Deafheaven-Sunbather-2013-(FLAC)/03 Deafheaven – Sunbather.flac

Track gain : -9.66 dB
Peak : 0.952545
CRC32 hash (test run) : EA0B6444
CRC32 hash : EA0B6444
CRC32 hash (skip zero) : 0AB63571
AccurateRip v1 signature : F3FB65BF
AccurateRip v2 signature : F36BEA8D
->Track not present in AccurateRip database.
Statistics
Read error : 0
Jitter error (maybe fixed) : 0
Retry sector count : 0
Damaged sector count : 0

Track 04
Filename : /Users/Calque/Downloads/Deafheaven-Sunbather-2013-(FLAC)/04 Deafheaven – Please Remember.flac

Track gain : -9.40 dB
Peak : 0.943420
CRC32 hash (test run) : 264EDD08
CRC32 hash : 264EDD08
CRC32 hash (skip zero) : AA733C3E
AccurateRip v1 signature : 81D3B85F
AccurateRip v2 signature : 71821733
->Track not present in AccurateRip database.
Statistics
Read error : 0
Jitter error (maybe fixed) : 0
Retry sector count : 0
Damaged sector count : 0

Track 05
Filename : /Users/Calque/Downloads/Deafheaven-Sunbather-2013-(FLAC)/05 Deafheaven – Vertigo.flac

Track gain : -9.60 dB
Peak : 0.950439
CRC32 hash (test run) : F15D5BC5
CRC32 hash : F15D5BC5
CRC32 hash (skip zero) : 81E2DC30
AccurateRip v1 signature : 18D8AC51
AccurateRip v2 signature : 51549463
->Track not present in AccurateRip database.
Statistics
Read error : 0
Jitter error (maybe fixed) : 0
Retry sector count : 0
Damaged sector count : 0

Track 06
Filename : /Users/Calque/Downloads/Deafheaven-Sunbather-2013-(FLAC)/06 Deafheaven – Windows.flac

Track gain : -1.56 dB
Peak : 0.766846
CRC32 hash (test run) : 8DBA43CF
CRC32 hash : 8DBA43CF
CRC32 hash (skip zero) : 0F95FCBE
AccurateRip v1 signature : 8BA1036D
AccurateRip v2 signature : B70D5AF6
->Track not present in AccurateRip database.
Statistics
Read error : 0
Jitter error (maybe fixed) : 0
Retry sector count : 0
Damaged sector count : 0

Track 07
Filename : /Users/Calque/Downloads/Deafheaven-Sunbather-2013-(FLAC)/07 Deafheaven – The Pecan Tree.flac

Track gain : -9.64 dB
Peak : 0.955231
CRC32 hash (test run) : 11889F59
CRC32 hash : 11889F59
CRC32 hash (skip zero) : 7DFF8CB1
AccurateRip v1 signature : CF6FFB83
AccurateRip v2 signature : E100FA90
->Track not present in AccurateRip database.
Statistics
Read error : 0
Jitter error (maybe fixed) : 0
Retry sector count : 0
Damaged sector count : 0

No errors occurred

End of status report

TITLE “Sunbather”
PERFORMER “Deafheaven”
REM GENRE “Black Metal”
REM DATE “2013”
REM DISCNUMBER 1
REM TOTALDISCS 1
REM DISCID 660E0D07
REM REPLAYGAIN_ALBUM_GAIN -9.57 dB
REM REPLAYGAIN_ALBUM_PEAK 0.957794
FILE “01 Deafheaven – Dream House.flac” WAVE
TRACK 01 AUDIO
TITLE “Dream House”
PERFORMER “Deafheaven”
REM REPLAYGAIN_TRACK_GAIN -9.66 dB
REM REPLAYGAIN_TRACK_PEAK 0.957794
INDEX 01 00:00:00
FILE “02 Deafheaven – Irresistible.flac” WAVE
TRACK 02 AUDIO
TITLE “Irresistible”
PERFORMER “Deafheaven”
REM REPLAYGAIN_TRACK_GAIN -2.22 dB
REM REPLAYGAIN_TRACK_PEAK 0.771790
INDEX 01 00:00:00
FILE “03 Deafheaven – Sunbather.flac” WAVE
TRACK 03 AUDIO
TITLE “Sunbather”
PERFORMER “Deafheaven”
REM REPLAYGAIN_TRACK_GAIN -9.66 dB
REM REPLAYGAIN_TRACK_PEAK 0.952545
INDEX 01 00:00:00
FILE “04 Deafheaven – Please Remember.flac” WAVE
TRACK 04 AUDIO
TITLE “Please Remember”
PERFORMER “Deafheaven”
REM REPLAYGAIN_TRACK_GAIN -9.40 dB
REM REPLAYGAIN_TRACK_PEAK 0.943420
INDEX 01 00:00:00
FILE “05 Deafheaven – Vertigo.flac” WAVE
TRACK 05 AUDIO
TITLE “Vertigo”
PERFORMER “Deafheaven”
REM REPLAYGAIN_TRACK_GAIN -9.60 dB
REM REPLAYGAIN_TRACK_PEAK 0.950439
INDEX 01 00:00:00
FILE “06 Deafheaven – Windows.flac” WAVE
TRACK 06 AUDIO
TITLE “Windows”
PERFORMER “Deafheaven”
REM REPLAYGAIN_TRACK_GAIN -1.56 dB
REM REPLAYGAIN_TRACK_PEAK 0.766846
INDEX 01 00:00:00
FILE “07 Deafheaven – The Pecan Tree.flac” WAVE
TRACK 07 AUDIO
TITLE “The Pecan Tree”
PERFORMER “Deafheaven”
REM REPLAYGAIN_TRACK_GAIN -9.64 dB
REM REPLAYGAIN_TRACK_PEAK 0.955231
INDEX 01 00:00:00


Leave a Reply

Your email address will not be published. Required fields are marked *

This site uses Akismet to reduce spam. Learn how your comment data is processed.