Dead Kennedys – Plastic Surgery Disasters / In God We Trust, Inc.




[Total: 0    Average: 0/5]

Artist: Dead Kennedys
Year: 1982/1993
Genre: Hardcore
Notes: Discogs
Add. Notes:
Cover incl.: Yes
Encoder: FLAC
Bitrate: ~900 kBit/s (44.1 kHz/16 Bit/s)
Log & Cue incl.: Yes
Size: 381,67 MB
Password: “slam” (without ” “)


All Downloads/Hosters are compatible

Download 1
Share-online.biz
Rapidgator.net
KatFile.com
UploadRar.com
UploadRive.com
Download 2
Share-online.biz
Rapidgator.net
KatFile.com
UploadRar.com
UploadRive.com

Tracklist:

Plastic Surgery Disasters
1 - Government Flu - 3:01
2 - Terminal Preppie - 1:30
3 - Trust Your Mechanic - 2:55
4 - Well Paid Scientist - 2:22
5 - Buzzbomb - 2:21
6 - Forest Fire - 2:22
7 - Halloween - 3:35
8 - Winnebago Warrior - 2:08
9 - Riot - 5:57
10 - Bleed For Me - 3:24
11 - I Am The Owl - 4:51
12 - Dead End - 3:56
13 - Moon Over Marin - 4:28
In God We Trust, Inc.
14 - Religious Vomit - 1:06
15 - Moral Majority - 1:55
16 - Hyperactive Child - 0:37
17 - Kepone Factory - 1:18
18 - Dog Bite - 1:14
19 - Nazi Punks Fuck Off - 1:03
20 - We've Got A Bigger Problem Now - 4:29
21 - Rawhide - 2:10

EAC-Log, CUE-Sheed & NFO:

Click to open spoiler
Отчёт EAC об извлечении, выполненном 3. января 2009, 14:24 для диска:
Dead Kennedys / Plastic Surgery Disasters

Дисковод: Optiarc DVD RW AD-7203S Adapter: 2 ID: 0
Режим чтения: Достоверный (C2: нет, Точный поток: да, Отключение кэша: да)
Коррекция смещения при чтении: 48
Способность читать области Lead-in и Lead-out : Нет

Выходной формат: Внутренние WAV-операции
44.100 Гц; 16 бит; стерео

Другие параметры:
Заполнение пропущенных сэмплов тишиной : Да
Удаление блоков с тишиной в начале и конце : Нет
Встроенный Win32-интерфейс для Win NT/2000

Характеристики диапазона извлечения и сообщения об ошибках
Выбранный диапазон
Имя файла D:\Z_DISTRIBUTIVES\downtor\Dead Kennedys [discography]\Plastic Surgery Disasters\Dead Kennedys – Plastic Surgery Disasters – In God We Trust.wav

Пиковый уровень 96.8 %
Качество диапазона 99.9 %
CRC B6E5A52C
Копирование… OK

Ошибок не произошло

Конец отчёта

REM GENRE Hardcore
REM DATE 1982
REM DISCID 3A0D5015
REM COMMENT “ExactAudioCopy v0.95b4”
CATALOG 0000000000000
PERFORMER “Dead Kennedys”
TITLE “Plastic Surgery Disasters ”
FILE “Dead Kennedys – Plastic Surgery Disasters – In God We Trust.wav” WAVE
TRACK 01 AUDIO
TITLE “Government Flu”
PERFORMER “Dead Kennedys”
INDEX 01 00:00:00
TRACK 02 AUDIO
TITLE “Terminal Preppie”
PERFORMER “Dead Kennedys”
INDEX 00 03:00:18
INDEX 01 03:00:25
TRACK 03 AUDIO
TITLE “Trust Your Mechanic”
PERFORMER “Dead Kennedys”
INDEX 00 04:30:23
INDEX 01 04:30:47
TRACK 04 AUDIO
TITLE “Well Paid Scientist”
PERFORMER “Dead Kennedys”
INDEX 00 07:25:74
INDEX 01 07:26:17
TRACK 05 AUDIO
TITLE “Buzzbomb”
PERFORMER “Dead Kennedys”
INDEX 00 09:48:05
INDEX 01 09:48:12
TRACK 06 AUDIO
TITLE “Forest Fire”
PERFORMER “Dead Kennedys”
INDEX 00 12:09:70
INDEX 01 12:09:72
TRACK 07 AUDIO
TITLE “Halloween”
PERFORMER “Dead Kennedys”
INDEX 00 14:32:68
INDEX 01 14:32:72
TRACK 08 AUDIO
TITLE “Winnebago Warrior”
PERFORMER “Dead Kennedys”
INDEX 01 18:08:10
TRACK 09 AUDIO
TITLE “Riot”
PERFORMER “Dead Kennedys”
INDEX 00 20:16:13
INDEX 01 20:16:47
TRACK 10 AUDIO
TITLE “Bleed For Me”
PERFORMER “Dead Kennedys”
INDEX 01 26:14:07
TRACK 11 AUDIO
TITLE “I Am The Owl”
PERFORMER “Dead Kennedys”
INDEX 00 29:38:66
INDEX 01 29:38:70
TRACK 12 AUDIO
TITLE “Dead End”
PERFORMER “Dead Kennedys”
INDEX 00 34:30:61
INDEX 01 34:30:72
TRACK 13 AUDIO
TITLE “Moon Over Marin”
PERFORMER “Dead Kennedys”
INDEX 00 38:26:64
INDEX 01 38:27:12
TRACK 14 AUDIO
TITLE “Religious Vomit”
PERFORMER “Dead Kennedys”
INDEX 00 42:54:35
INDEX 01 42:55:22
TRACK 15 AUDIO
TITLE “Moral Majority”
PERFORMER “Dead Kennedys”
INDEX 00 43:59:71
INDEX 01 44:01:40
TRACK 16 AUDIO
TITLE “Hyperactive Child”
PERFORMER “Dead Kennedys”
INDEX 00 45:56:41
INDEX 01 45:56:67
TRACK 17 AUDIO
TITLE “Kepone Factory”
PERFORMER “Dead Kennedys”
INDEX 00 46:34:00
INDEX 01 46:34:12
TRACK 18 AUDIO
TITLE “Dog Bite”
PERFORMER “Dead Kennedys”
INDEX 00 47:52:61
INDEX 01 47:53:00
TRACK 19 AUDIO
TITLE “Nazi Punks Fuck Off”
PERFORMER “Dead Kennedys”
INDEX 00 49:06:45
INDEX 01 49:06:65
TRACK 20 AUDIO
TITLE “We’ve Got A Bigger Problem Now”
PERFORMER “Dead Kennedys”
INDEX 00 50:09:29
INDEX 01 50:10:12
TRACK 21 AUDIO
TITLE “Rawhide”
PERFORMER “Dead Kennedys”
INDEX 00 54:39:36
INDEX 01 54:39:45


Spread the Download

Leave a Reply

Your email address will not be published. Required fields are marked *

Enter the text from the image below
 

This site uses Akismet to reduce spam. Learn how your comment data is processed.