Dead Kennedys – Mutiny On The Bay




Artist: Dead Kennedys
Year: 2001
Genre: Punk
Notes: Discogs
Add. Notes:
Cover incl.: Yes
Encoder: FLAC
Bitrate: ~900 kBit/s (44.1 kHz/16 Bit/s)
Log & Cue incl.: Yes
Size: 349,95 MB
Password: “slam” (without ” “)


All Downloads/Hosters are compatible

Download 1
Turbobit.net
NitroFlare.com
KatFile.com
Rapidgator.net
Download 2
Turbobit.net
NitroFlare.com
KatFile.com
Rapidgator.net

Tracklist:

1 - Nightmare - 6:14
2 - Welcome To The Family - 4:06
3 - Danger Line - 5:28
4 - Buried Alive - 6:14
5 - Natural Born Killer - 5:15
6 - So Far Away - 5:27
7 - God Hates Us - 5:18
8 - Victim - 7:30
9 - Tonight The World Dies - 4:41
10 - Fiction - 5:13
11 - Save Me - 10:56

EAC-Log, CUE-Sheed & NFO:

Click to open spoiler
Отчёт EAC об извлечении, выполненном 3. января 2009, 13:43 для диска:
Dead Kennedys / Mutiny On The Bay (live from the San Francisco Bay Area)

Дисковод: Optiarc DVD RW AD-7203S Adapter: 2 ID: 0
Режим чтения: Достоверный (C2: нет, Точный поток: да, Отключение кэша: да)
Коррекция смещения при чтении: 48
Способность читать области Lead-in и Lead-out : Нет

Выходной формат: Внутренние WAV-операции
44.100 Гц; 16 бит; стерео

Другие параметры:
Заполнение пропущенных сэмплов тишиной : Да
Удаление блоков с тишиной в начале и конце : Нет
Встроенный Win32-интерфейс для Win NT/2000

Характеристики диапазона извлечения и сообщения об ошибках
Выбранный диапазон
Имя файла D:\Z_DISTRIBUTIVES\downtor\Dead Kennedys [discography]\Mutiny on the Bay [live]\Dead Kennedys – Mutiny On The Bay (live from the San Francisco Bay Area).wav

Пиковый уровень 99.8 %
Качество диапазона 100.0 %
CRC 87726102
Копирование… OK

Ошибок не произошло

Конец отчёта

REM GENRE “Punk Rock”
REM DATE 1986
REM DISCID A90C020E
REM COMMENT “ExactAudioCopy v0.95b4”
PERFORMER “Dead Kennedys”
TITLE “Mutiny On The Bay (live from the San Francisco Bay Area)”
FILE “Dead Kennedys – Mutiny On The Bay (live from the San Francisco Bay Area).flac” WAVE
TRACK 01 AUDIO
TITLE “Introduction”
PERFORMER “Dead Kennedys”
INDEX 01 00:00:00
TRACK 02 AUDIO
TITLE “Police Truck”
PERFORMER “Dead Kennedys”
INDEX 00 00:21:60
INDEX 01 00:22:02
TRACK 03 AUDIO
TITLE “Kill The Poor”
PERFORMER “Dead Kennedys”
INDEX 00 03:00:18
INDEX 01 03:00:21
TRACK 04 AUDIO
TITLE “Holiday In Cambodia”
PERFORMER “Dead Kennedys”
INDEX 01 06:04:68
TRACK 05 AUDIO
TITLE “Moon Over Marin”
PERFORMER “Dead Kennedys”
INDEX 01 10:35:21
TRACK 06 AUDIO
TITLE “California Uber Alles”
PERFORMER “Dead Kennedys”
INDEX 00 14:09:74
INDEX 01 14:10:11
TRACK 07 AUDIO
TITLE “MTV – Get Off The Air”
PERFORMER “Dead Kennedys”
INDEX 00 18:39:58
INDEX 01 18:40:02
TRACK 08 AUDIO
TITLE “Too Drunk To Fuck”
PERFORMER “Dead Kennedys”
INDEX 00 22:54:25
INDEX 01 22:54:33
TRACK 09 AUDIO
TITLE “Goons Of Hazzard”
PERFORMER “Dead Kennedys”
INDEX 01 25:48:51
TRACK 10 AUDIO
TITLE “This Could Be Anywhere”
PERFORMER “Dead Kennedys”
INDEX 00 29:55:44
INDEX 01 29:55:63
TRACK 11 AUDIO
TITLE “Forward To Death”
PERFORMER “Dead Kennedys”
INDEX 00 34:17:71
INDEX 01 34:18:15
TRACK 12 AUDIO
TITLE “I Am The Owl”
PERFORMER “Dead Kennedys”
INDEX 01 35:28:42
TRACK 13 AUDIO
TITLE “Hellnation”
PERFORMER “Dead Kennedys”
INDEX 01 40:44:22
TRACK 14 AUDIO
TITLE “Riot”
PERFORMER “Dead Kennedys”
INDEX 01 43:44:19


Leave a Reply

Your email address will not be published. Required fields are marked *

This site uses Akismet to reduce spam. Learn how your comment data is processed.