Dead Kennedys – Live at the Deaf Club




Artist: Dead Kennedys
Year: 1979
Genre: Punk
Notes: Discogs
Add. Notes:
Cover incl.: Yes
Encoder: FLAC
Bitrate: ~1000 kBit/s (44.1 kHz/16 Bit/s)
Log & Cue incl.: Yes
Size: 282,65 MB
Password: “slam” (without ” “)


All Downloads/Hosters are compatible

Download 1
Turbobit.net
KatFile.com
Rapidgator.net
Download 2
Turbobit.net
KatFile.com
Rapidgator.net

Tracklist:

1 - Introduction By DJ Johnny Walker - 0:21
2 - Kill The Poor (Disco Version) - 3:57
3 - Back In Rhodesia (Early Version Of When You Get 
Drafted) - 1:31
4 - Man With The Dogs - 3:23
5 - Gaslight - 2:41
6 - California Über Alles - 3:45
7 - Ill In The Head - 3:25
8 - Straight A's - 2:13
9 - Short Songs - 0:31
10 - Holiday In Cambodia - 4:33
11 - Police Truck - 2:55
12 - Forward To Death - 1:21
13 - Have I The Right - 2:16
14 - Back In The USSR - 1:55
15 - Viva Las Vegas - 3:07

EAC-Log, CUE-Sheed & NFO:

Click to open spoiler
Отчёт EAC об извлечении, выполненном 3. января 2009, 13:33 для диска:
Dead Kennedys / Live at the Deaf Club

Дисковод: Optiarc DVD RW AD-7203S Adapter: 2 ID: 0
Режим чтения: Достоверный (C2: нет, Точный поток: да, Отключение кэша: да)
Коррекция смещения при чтении: 48
Способность читать области Lead-in и Lead-out : Нет

Выходной формат: Внутренние WAV-операции
44.100 Гц; 16 бит; стерео

Другие параметры:
Заполнение пропущенных сэмплов тишиной : Да
Удаление блоков с тишиной в начале и конце : Нет
Встроенный Win32-интерфейс для Win NT/2000

Характеристики диапазона извлечения и сообщения об ошибках
Выбранный диапазон
Имя файла D:\Z_DISTRIBUTIVES\downtor\Dead Kennedys [discography]\Live at the Deaf Club\Dead Kennedys – Live at the Deaf Club.wav

Пиковый уровень 98.9 %
Качество диапазона 100.0 %
CRC A3BD2ADC
Копирование… OK

Ошибок не произошло

Конец отчёта

REM GENRE “Punk Rock”
REM DATE 1979
REM DISCID AC09410F
REM COMMENT “ExactAudioCopy v0.95b4”
PERFORMER “Dead Kennedys”
TITLE “Live at the Deaf Club”
FILE “Dead Kennedys – Live at the Deaf Club.flac” WAVE
TRACK 01 AUDIO
TITLE “Introduction by DJ Johnny Walker”
PERFORMER “Dead Kennedys”
INDEX 01 00:00:00
TRACK 02 AUDIO
TITLE “Kill the Poor”
PERFORMER “Dead Kennedys”
INDEX 01 00:20:67
TRACK 03 AUDIO
TITLE “Back in Rhodesia”
PERFORMER “Dead Kennedys”
INDEX 00 04:18:34
INDEX 01 04:18:36
TRACK 04 AUDIO
TITLE “Man with the Dogs”
PERFORMER “Dead Kennedys”
INDEX 01 05:49:69
TRACK 05 AUDIO
TITLE “Gaslight”
PERFORMER “Dead Kennedys”
INDEX 01 09:12:06
TRACK 06 AUDIO
TITLE “California Uber Alles”
PERFORMER “Dead Kennedys”
INDEX 01 11:53:08
TRACK 07 AUDIO
TITLE “Ill in the Head”
PERFORMER “Dead Kennedys”
INDEX 00 15:38:07
INDEX 01 15:38:12
TRACK 08 AUDIO
TITLE “Straight A’s”
PERFORMER “Dead Kennedys”
INDEX 01 19:03:50
TRACK 09 AUDIO
TITLE “Short Songs”
PERFORMER “Dead Kennedys”
INDEX 01 21:16:66
TRACK 10 AUDIO
TITLE “Holiday in Cambodia”
PERFORMER “Dead Kennedys”
INDEX 01 21:48:22
TRACK 11 AUDIO
TITLE “Police Truck”
PERFORMER “Dead Kennedys”
INDEX 01 26:21:54
TRACK 12 AUDIO
TITLE “Forward to Death”
PERFORMER “Dead Kennedys”
INDEX 01 29:16:56
TRACK 13 AUDIO
TITLE “Have I the Right”
PERFORMER “Dead Kennedys”
INDEX 01 31:10:23
TRACK 14 AUDIO
TITLE “Back in the USSR”
PERFORMER “Dead Kennedys”
INDEX 01 33:26:58
TRACK 15 AUDIO
TITLE “Viva Las Vegas”
PERFORMER “Dead Kennedys”
INDEX 00 35:58:02
INDEX 01 35:58:17


Leave a Reply

Your email address will not be published. Required fields are marked *

Enter the text from the image below
 

This site uses Akismet to reduce spam. Learn how your comment data is processed.