Dead Kennedys – Fresh Fruit for Rotting Vegetables




Artist: Dead Kennedys
Year: 1980/1993
Genre: Hardcore
Notes: Discogs
Add. Notes:
Cover incl.: Yes
Encoder: FLAC
Bitrate: ~900 kBit/s (44.1 kHz/16 Bit/s)
Log & Cue incl.: Yes
Size: 217,97 MB
Password: “slam” (without ” “)


All Downloads/Hosters are compatible

Download 1
NitroFlare.com
KatFile.com
Turbobit.net
Rapidgator.net
UploadRar.com
Download 2
NitroFlare.com
KatFile.com
Turbobit.net
Rapidgator.net
UploadRar.com

Tracklist:

1 - Kill The Poor - 3:03
2 - Forward To Death - 1:22
3 - When Ya Get Drafted - 1:22
4 - Let's Lynch The Landlord - 2:11
5 - Drug Me - 1:55
6 - Your Emotions - 1:19
7 - Chemical Warfare - 2:54
8 - California Über Alles - 3:00
9 - I Kill Children - 2:02
10 - Stealing Peoples' Mail - 1:33
11 - Funland At The Beach - 1:48
12 - Ill In The Head - 2:44
13 - Holiday In Cambodia - 4:33
14 - Viva Las Vegas - 2:37

EAC-Log, CUE-Sheed & NFO:

Click to open spoiler
Отчёт EAC об извлечении, выполненном 3. января 2009, 13:52 для диска:
Dead Kennedys / Fresh Fruit for Rotting Vegetables

Дисковод: Optiarc DVD RW AD-7203S Adapter: 2 ID: 0
Режим чтения: Достоверный (C2: нет, Точный поток: да, Отключение кэша: да)
Коррекция смещения при чтении: 48
Способность читать области Lead-in и Lead-out : Нет

Выходной формат: Внутренние WAV-операции
44.100 Гц; 16 бит; стерео

Другие параметры:
Заполнение пропущенных сэмплов тишиной : Да
Удаление блоков с тишиной в начале и конце : Нет
Встроенный Win32-интерфейс для Win NT/2000

Характеристики диапазона извлечения и сообщения об ошибках
Выбранный диапазон
Имя файла D:\Z_DISTRIBUTIVES\downtor\Dead Kennedys [discography]\Fresh Fruit for Rotting Vegetables\Dead Kennedys – Fresh Fruit for Rotting Vegetables.wav

Пиковый уровень 99.7 %
Качество диапазона 99.9 %
CRC BB7EF66E
Копирование… OK

Ошибок не произошло

Конец отчёта

REM GENRE “Punk Rock”
REM DATE 1980
REM DISCID BF07980E
REM COMMENT “ExactAudioCopy v0.95b4”
PERFORMER “Dead Kennedys”
TITLE “Fresh Fruit for Rotting Vegetables”
FILE “Dead Kennedys – Fresh Fruit for Rotting Vegetables.wav” WAVE
TRACK 01 AUDIO
TITLE “Kill the Poor”
PERFORMER “Dead Kennedys”
INDEX 01 00:00:00
TRACK 02 AUDIO
TITLE “Forward to Death”
PERFORMER “Dead Kennedys”
INDEX 01 03:03:62
TRACK 03 AUDIO
TITLE “When Ya Get Drafted”
PERFORMER “Dead Kennedys”
INDEX 00 04:25:58
INDEX 01 04:25:67
TRACK 04 AUDIO
TITLE “Let’s Lynch the Landlord”
PERFORMER “Dead Kennedys”
INDEX 00 05:48:17
INDEX 01 05:48:20
TRACK 05 AUDIO
TITLE “Drug Me”
PERFORMER “Dead Kennedys”
INDEX 00 07:58:45
INDEX 01 07:58:65
TRACK 06 AUDIO
TITLE “Your Emotions”
PERFORMER “Dead Kennedys”
INDEX 00 09:53:52
INDEX 01 09:53:55
TRACK 07 AUDIO
TITLE “Chemical Welfare”
PERFORMER “Dead Kennedys”
INDEX 01 11:12:62
TRACK 08 AUDIO
TITLE “California Uber Alles”
PERFORMER “Dead Kennedys”
INDEX 00 14:07:15
INDEX 01 14:07:22
TRACK 09 AUDIO
TITLE “I Kill Children”
PERFORMER “Dead Kennedys”
INDEX 01 17:07:57
TRACK 10 AUDIO
TITLE “Stealing People’s Mail”
PERFORMER “Dead Kennedys”
INDEX 01 19:10:20
TRACK 11 AUDIO
TITLE “Funland at the Beach”
PERFORMER “Dead Kennedys”
INDEX 00 20:43:13
INDEX 01 20:43:22
TRACK 12 AUDIO
TITLE “Ill in the Head”
PERFORMER “Dead Kennedys”
INDEX 01 22:31:20
TRACK 13 AUDIO
TITLE “Holiday in Cambodia”
PERFORMER “Dead Kennedys”
INDEX 00 25:14:63
INDEX 01 25:14:70
TRACK 14 AUDIO
TITLE “Viva Las Vegas”
PERFORMER “Dead Kennedys”
INDEX 00 29:47:34
INDEX 01 29:47:37


Leave a Reply

Your email address will not be published. Required fields are marked *

Enter the text from the image below
 

This site uses Akismet to reduce spam. Learn how your comment data is processed.