Dead Kennedys – Frankenchrist (Japanese Edition)




Artist: Dead Kennedys
Year: 1985/2008
Genre: Punk
Notes: Discogs
Add. Notes: Japanese Edition
Cover incl.: Yes
Encoder: FLAC
Bitrate: ~1000 kBit/s (44.1 kHz/16 Bit/s)
Log & Cue incl.: Yes
Size: 347,03 MB
Password: “slam” (without ” “)


All Downloads/Hosters are compatible

Download 1
NitroFlare.com
KatFile.com
Turbobit.net
Rapidgator.net
UploadRar.com
Download 2
NitroFlare.com
KatFile.com
Turbobit.net
Rapidgator.net
UploadRar.com

Tracklist:

1 - Soup Is Good Food 
2 - Hellnation 
3 - This Could Be Anywhere (This Could Be Everywhere) 
4 - A Growing Boy Needs His Lunch 
5 - Chicken Farm 
6 - Jock-O-Rama (Invasion Of The Beef Patrol) 
7 - Goons Of Hazzard 
8 - M.T.V. - Get Off The Air 
9 - At My Job 
10 - Stars And Stripes Of Corruption

EAC-Log, CUE-Sheed & NFO:

Click to open spoiler
Отчёт EAC об извлечении, выполненном 3. января 2009, 14:12 для диска:
Dead Kennedys / Frankenchrist

Дисковод: Optiarc DVD RW AD-7203S Adapter: 2 ID: 0
Режим чтения: Достоверный (C2: нет, Точный поток: да, Отключение кэша: да)
Коррекция смещения при чтении: 48
Способность читать области Lead-in и Lead-out : Нет

Выходной формат: Внутренние WAV-операции
44.100 Гц; 16 бит; стерео

Другие параметры:
Заполнение пропущенных сэмплов тишиной : Да
Удаление блоков с тишиной в начале и конце : Нет
Встроенный Win32-интерфейс для Win NT/2000

Характеристики диапазона извлечения и сообщения об ошибках
Выбранный диапазон
Имя файла D:\Z_DISTRIBUTIVES\downtor\Dead Kennedys [discography]\Frankenchrist\Dead Kennedys – Frankenchrist.wav

Пиковый уровень 99.8 %
Качество диапазона 99.9 %
CRC 8DA43C5B
Копирование… OK

Ошибок не произошло

Конец отчёта

REM GENRE Punk
REM DATE 1986
REM DISCID 6B0A960A
REM COMMENT “ExactAudioCopy v0.95b4”
CATALOG 4988004107948
PERFORMER “Dead Kennedys”
TITLE “Frankenchrist”
FILE “Dead Kennedys – Frankenchrist.flac” WAVE
TRACK 01 AUDIO
TITLE “Soup Is Good Food”
PERFORMER “Dead Kennedys”
INDEX 01 00:00:00
TRACK 02 AUDIO
TITLE “Hellnation”
PERFORMER “Dead Kennedys”
INDEX 01 04:18:10
TRACK 03 AUDIO
TITLE “This Could Be Anywhere (This Could Be Everywhere)”
PERFORMER “Dead Kennedys”
INDEX 01 06:39:62
TRACK 04 AUDIO
TITLE “A Growing Boy Needs His Lunch”
PERFORMER “Dead Kennedys”
INDEX 01 12:04:00
TRACK 05 AUDIO
TITLE “Chicken Farm”
PERFORMER “Dead Kennedys”
INDEX 01 17:53:70
TRACK 06 AUDIO
TITLE “Jock-O-Rama (Invasion of Beef Patrol)”
PERFORMER “Dead Kennedys”
INDEX 01 22:59:67
TRACK 07 AUDIO
TITLE “Goons of Hazzard”
PERFORMER “Dead Kennedys”
INDEX 01 27:06:07
TRACK 08 AUDIO
TITLE “M.T.V. – Get Off the Air”
PERFORMER “Dead Kennedys”
INDEX 01 31:31:05
TRACK 09 AUDIO
TITLE “At My Job”
PERFORMER “Dead Kennedys”
INDEX 01 35:08:32
TRACK 10 AUDIO
TITLE “Stars And Stripes of Corruption”
PERFORMER “Dead Kennedys”
INDEX 01 38:49:10


Leave a Reply

Your email address will not be published. Required fields are marked *

This site uses Akismet to reduce spam. Learn how your comment data is processed.