Dead Kennedys – Bedtime For Democracy (Remastered Japanese Edition)




Artist: Dead Kennedys
Year: 1986/2008
Genre: Punk
Notes: Discogs
Add. Notes: Remastered Japanese Edition
Cover incl.: Yes
Encoder: FLAC
Bitrate: ~1000 kBit/s (44.1 kHz/16 Bit/s)
Log & Cue incl.: Yes
Size: 358,16 MB
Password: “slam” (without ” “)


All Downloads/Hosters are compatible

Download 1
Turbobit.net
KatFile.com
Rapidgator.net
Usersdrive.com
Download 2
Turbobit.net
KatFile.com
Rapidgator.net
Usersdrive.com

Tracklist:

1 - Take This Job And Shove It - 1:05
2 - Hop With The Jet Set - 2:07
3 - Dear Abby - 1:09
4 - Rambozo The Clown - 2:25
5 - Fleshdunce - 1:29
6 - The Great Wall - 1:32
7 - Shrink - 1:57
8 - Triumph Of The Swill - 2:04
9 - Macho Insecurity - 1:30
10 - I Spy - 2:30
11 - Cesspools In Eden - 5:55
12 - One-Way Ticket To Pluto - 1:38
13 - Do The Slag - 1:36
14 - A Commercial - 1:32
15 - Gone With My Wind - 1:43
16 - Anarchy For Sale - 1:18
17 - Chickenshit Conformist - 5:59
18 - Where Do Ya Draw The Line? - 2:39
19 - Potshot Heard Round The World - 2:12
20 - D.M.S.O. - 2:07
21 - Lie Detector - 3:43

EAC-Log, CUE-Sheed & NFO:

Click to open spoiler
Отчёт EAC об извлечении, выполненном 3. января 2009, 14:03 для диска:
Dead Kennedys / Bedtime For Democracy

Дисковод: Optiarc DVD RW AD-7203S Adapter: 2 ID: 0
Режим чтения: Достоверный (C2: нет, Точный поток: да, Отключение кэша: да)
Коррекция смещения при чтении: 48
Способность читать области Lead-in и Lead-out : Нет

Выходной формат: Внутренние WAV-операции
44.100 Гц; 16 бит; стерео

Другие параметры:
Заполнение пропущенных сэмплов тишиной : Да
Удаление блоков с тишиной в начале и конце : Нет
Встроенный Win32-интерфейс для Win NT/2000

Характеристики диапазона извлечения и сообщения об ошибках
Выбранный диапазон
Имя файла D:\Z_DISTRIBUTIVES\downtor\Dead Kennedys [discography]\Bedtime For Democracy\Dead Kennedys – Bedtime For Democracy.wav

Пиковый уровень 99.8 %
Качество диапазона 100.0 %
CRC 83CD221B
Копирование… OK

Ошибок не произошло

Конец отчёта

REM GENRE Punk
REM DATE 1986
REM DISCID 3A0B6715
REM COMMENT “ExactAudioCopy v0.95b4”
CATALOG 4988004107955
PERFORMER “Dead Kennedys”
TITLE “Bedtime For Democracy”
FILE “Dead Kennedys – Bedtime For Democracy.flac” WAVE
TRACK 01 AUDIO
TITLE “Take This Job And Shove It”
PERFORMER “Dead Kennedys”
INDEX 01 00:00:00
TRACK 02 AUDIO
TITLE “Hop With The Jet Set”
PERFORMER “Dead Kennedys”
INDEX 00 01:24:73
INDEX 01 01:25:10
TRACK 03 AUDIO
TITLE “Dear Abby”
PERFORMER “Dead Kennedys”
INDEX 00 03:32:22
INDEX 01 03:32:35
TRACK 04 AUDIO
TITLE “Rambozo The Clown”
PERFORMER “Dead Kennedys”
INDEX 01 04:42:02
TRACK 05 AUDIO
TITLE “Fleshdunce”
PERFORMER “Dead Kennedys”
INDEX 00 07:07:02
INDEX 01 07:07:05
TRACK 06 AUDIO
TITLE “Great Wall”
PERFORMER “Dead Kennedys”
INDEX 01 08:36:60
TRACK 07 AUDIO
TITLE “Shrink”
PERFORMER “Dead Kennedys”
INDEX 00 10:09:29
INDEX 01 10:09:37
TRACK 08 AUDIO
TITLE “Triumph Of The Swill”
PERFORMER “Dead Kennedys”
INDEX 01 11:54:17
TRACK 09 AUDIO
TITLE “Macho Insecurity”
PERFORMER “Dead Kennedys”
INDEX 01 14:11:52
TRACK 10 AUDIO
TITLE “I Spy”
PERFORMER “Dead Kennedys”
INDEX 00 15:42:01
INDEX 01 15:42:02
TRACK 11 AUDIO
TITLE “Cesspools In Eden”
PERFORMER “Dead Kennedys”
INDEX 01 18:12:17
TRACK 12 AUDIO
TITLE “One-Way Ticket To Pluto”
PERFORMER “Dead Kennedys”
INDEX 01 24:08:37
TRACK 13 AUDIO
TITLE “Do The Slag”
PERFORMER “Dead Kennedys”
INDEX 01 25:47:10
TRACK 14 AUDIO
TITLE “A Commercial”
PERFORMER “Dead Kennedys”
INDEX 00 27:23:57
INDEX 01 27:23:67
TRACK 15 AUDIO
TITLE “Gone With My Wind”
PERFORMER “Dead Kennedys”
INDEX 00 28:57:03
INDEX 01 28:57:07
TRACK 16 AUDIO
TITLE “Anarchy For Sale”
PERFORMER “Dead Kennedys”
INDEX 00 30:40:18
INDEX 01 30:40:20
TRACK 17 AUDIO
TITLE “Chickenshit Conformist”
PERFORMER “Dead Kennedys”
INDEX 01 31:58:32
TRACK 18 AUDIO
TITLE “Where Do Ya Draw The Line”
PERFORMER “Dead Kennedys”
INDEX 01 37:57:32
TRACK 19 AUDIO
TITLE “Potshot Heard ‘Round The World”
PERFORMER “Dead Kennedys”
INDEX 01 40:36:52
TRACK 20 AUDIO
TITLE “D.M.S.O.”
PERFORMER “Dead Kennedys”
INDEX 00 42:46:67
INDEX 01 42:47:12
TRACK 21 AUDIO
TITLE “Lie Detector”
PERFORMER “Dead Kennedys”
INDEX 01 44:57:00


Leave a Reply

Your email address will not be published. Required fields are marked *

This site uses Akismet to reduce spam. Learn how your comment data is processed.