David Bowie – The Rise And Fall Of Ziggy Stardust And The Spiders From Mars (Remastered)




No Cover available

Artist: David Bowie
Year: 1972/1990
Genre: Rock
Notes: Discogs
Add. Notes: Remastered
Watch Songs on: YouTube
Cover incl.: Yes
Encoder: FLAC
Bitrate: ~1000 kBit/s (44.1 kHz/16 Bit/s)
Log & Cue incl.: Yes/Yes
Size: 435,3 MB
Password: “slam” (without ” “)


All Downloads/Hosters are compatible

Download 1
KatFile.com
Turbobit.net
FileFactory.com
Rapidgator.net
Download 2
KatFile.com
Turbobit.net
FileFactory.com
Rapidgator.net

Tracklist:

1 Five Years 4:42
2 Soul Love 3:33
3 Moonage Daydream 4:37
4 Starman 4:16
5 It Ain't Easy 2:57
6 Lady Stardust 3:21
7 Star 2:47
8 Hang Onto Yourself 2:38
9 Ziggy Stardust 3:13
10 Suffragette City 3:25
11 Rock 'N' Roll Suicide 2:57

Bonus Tracks:
12 John, I'm Only Dancing 2:43
13 Velvet Goldmine 3:09
14 Sweet Head 4:14
15 Ziggy Stardust (Original Demo) 2:35
16 Lady Stardust (Original Demo) 3:35

EAC-Log, CUE-Sheed & NFO:

Click to open spoiler
Exact Audio Copy V1.0 beta 3 from 29. August 2011

Отчёт EAC об извлечении, выполненном 31. марта 2013, 16:11

David Bowie / The Rise And Fall Of Ziggy Stardust And The Spiders From Mars

Дисковод: SONY CD-RW CRX230ED Adapter: 0 ID: 1

Режим чтения : Достоверность
Использование точного потока : Да
Отключение кэша аудио : Да
Использование указателей C2 : Нет

Коррекция смещения при чтении : 6
Способность читать области Lead-in и Lead-out : Нет
Заполнение пропущенных сэмплов тишиной : Да
Удаление блоков с тишиной в начале и конце : Нет
При вычислениях CRC использовались нулевые сэмплы : Да
Интерфейс : Установленный внешний ASPI-интерфейс

Выходной формат : Внутренние WAV-операции
Формат сэмплов : 44.100 Гц; 16 бит; стерео

TOC извлечённого CD

Трек | Старт | Длительность | Начальный сектор | Конечный сектор
———————————————————————
1 | 0:00.33 | 4:43.15 | 33 | 21272
2 | 4:43.48 | 3:33.65 | 21273 | 37312
3 | 8:17.38 | 4:37.27 | 37313 | 58114
4 | 12:54.65 | 4:16.33 | 58115 | 77347
5 | 17:11.23 | 2:59.55 | 77348 | 90827
6 | 20:11.03 | 3:21.22 | 90828 | 105924
7 | 23:32.25 | 2:47.10 | 105925 | 118459
8 | 26:19.35 | 2:38.65 | 118460 | 130374
9 | 28:58.25 | 3:13.15 | 130375 | 144864
10 | 32:11.40 | 3:25.38 | 144865 | 160277
11 | 35:37.03 | 3:02.00 | 160278 | 173927
12 | 38:39.03 | 2:46.02 | 173928 | 186379
13 | 41:25.05 | 3:12.35 | 186380 | 200814
14 | 44:37.40 | 4:17.03 | 200815 | 220092
15 | 48:54.43 | 3:39.42 | 220093 | 236559
16 | 52:34.10 | 3:33.23 | 236560 | 252557

Характеристики диапазона извлечения и сообщения об ошибках

Выбранный диапазон

Имя файла E:\MusicCD\Torrent\David Bowie – The Rise And Fall Of Ziggy Stardust And The Spiders From Mars\David Bowie – The Rise And Fall Of Ziggy Stardust And The Spiders From Mars.wav

Пиковый уровень 100.0 %
Скорость извлечения 7.7 X
Качество диапазона 99.9 %
CRC теста 161F674A
CRC копии 161F674A
Копирование… OK

Ошибок не произошло

AccurateRip: сводка

Трек 1 : извлечено точно (доверие 5) [0872711C] (AR v2)
Трек 2 : извлечено точно (доверие 5) [56DFBEF4] (AR v2)
Трек 3 : извлечено точно (доверие 5) [7FCA9BFB] (AR v2)
Трек 4 : извлечено точно (доверие 5) [F582CE02] (AR v2)
Трек 5 : извлечено точно (доверие 5) [4AFE2130] (AR v2)
Трек 6 : извлечено точно (доверие 5) [C6A6A5D4] (AR v2)
Трек 7 : извлечено точно (доверие 5) [456860EA] (AR v2)
Трек 8 : извлечено точно (доверие 5) [7D0332D8] (AR v2)
Трек 9 : извлечено точно (доверие 5) [72509D35] (AR v2)
Трек 10 : извлечено точно (доверие 5) [791AC8F6] (AR v2)
Трек 11 : извлечено точно (доверие 5) [6DF657A3] (AR v2)
Трек 12 : извлечено точно (доверие 5) [FCF0FF7F] (AR v2)
Трек 13 : извлечено точно (доверие 5) [DC8A7B17] (AR v2)
Трек 14 : извлечено точно (доверие 5) [F28C1E0D] (AR v2)
Трек 15 : извлечено точно (доверие 5) [2E708DE9] (AR v2)
Трек 16 : извлечено точно (доверие 5) [47F0D07A] (AR v2)

Все треки извлечены точно

Конец отчёта

==== Контрольная сумма отчёта D7916226BCC1E34405670A96567723576F7C840A49676D95258DF0908A58DDF2 ====

REM GENRE Rock
REM DATE 1972
REM DISCID E50D2710
REM COMMENT “ExactAudioCopy v1.0b3”
PERFORMER “David Bowie”
TITLE “The Rise And Fall Of Ziggy Stardust And The Spiders From Mars”
FILE “David Bowie – The Rise And Fall Of Ziggy Stardust And The Spiders From Mars.flac” WAVE
TRACK 01 AUDIO
TITLE “Five Years”
PERFORMER “David Bowie”
INDEX 00 00:00:00
INDEX 01 00:00:33
TRACK 02 AUDIO
TITLE “Soul Love”
PERFORMER “David Bowie”
INDEX 00 04:43:45
INDEX 01 04:43:48
TRACK 03 AUDIO
TITLE “Moonage Daydream”
PERFORMER “David Bowie”
INDEX 00 08:17:35
INDEX 01 08:17:38
TRACK 04 AUDIO
TITLE “Starman”
PERFORMER “David Bowie”
INDEX 00 12:54:63
INDEX 01 12:54:65
TRACK 05 AUDIO
TITLE “It Ain’t Easy”
PERFORMER “David Bowie”
INDEX 00 17:11:20
INDEX 01 17:11:23
TRACK 06 AUDIO
TITLE “Lady Stardust”
PERFORMER “David Bowie”
INDEX 00 20:08:55
INDEX 01 20:11:03
TRACK 07 AUDIO
TITLE “Star”
PERFORMER “David Bowie”
INDEX 00 23:32:23
INDEX 01 23:32:25
TRACK 08 AUDIO
TITLE “Hang Onto Yourself”
PERFORMER “David Bowie”
INDEX 00 26:19:33
INDEX 01 26:19:35
TRACK 09 AUDIO
TITLE “Ziggy Stardust”
PERFORMER “David Bowie”
INDEX 00 28:58:23
INDEX 01 28:58:25
TRACK 10 AUDIO
TITLE “Suffragette City”
PERFORMER “David Bowie”
INDEX 00 32:11:38
INDEX 01 32:11:40
TRACK 11 AUDIO
TITLE “Rock ‘N’ Roll Suicide”
PERFORMER “David Bowie”
INDEX 00 35:37:00
INDEX 01 35:37:03
TRACK 12 AUDIO
TITLE “John, I’m Only Dancing (single B-side)”
PERFORMER “David Bowie”
INDEX 00 38:35:13
INDEX 01 38:39:03
TRACK 13 AUDIO
TITLE “Velvet Goldmine (single B-side)”
PERFORMER “David Bowie”
INDEX 00 41:22:65
INDEX 01 41:25:05
TRACK 14 AUDIO
TITLE “Sweet Head (previously unreleased track)”
PERFORMER “David Bowie”
INDEX 00 44:35:38
INDEX 01 44:37:40
TRACK 15 AUDIO
TITLE “Ziggy Stardust (previously unreleased original demo)”
PERFORMER “David Bowie”
INDEX 00 48:52:40
INDEX 01 48:54:43
TRACK 16 AUDIO
TITLE “Lady Stardust (previously unreleased original demo)”
PERFORMER “David Bowie”
INDEX 00 52:31:05
INDEX 01 52:34:10


Leave a Reply

Your email address will not be published. Required fields are marked *

Enter the text from the image below
 

This site uses Akismet to reduce spam. Learn how your comment data is processed.