Das Untergangskommando – … und dann ruft uns die Nacht




No Cover available


Artist: Das Untergangskommando
Year: 2001
Genre: Punk
Notes: Discogs
Add. Notes:
Watch Songs on: YouTube
Cover incl.: Yes
Encoder: FLAC
Bitrate: ~1000 kBit/s (44.1 kHz/16 Bit/s)
Log & Cue incl.: Yes/Yes
Size: 508,2 MB
Password: “slam” (without ” “)


All Downloads/Hosters are compatible

Download 1
KatFile.com
Turbobit.net
Rapidgator.net
FileFactory.com
Download 2
KatFile.com
Turbobit.net
Rapidgator.net
FileFactory.com

Tracklist:

1 Amok Koma Schock 
2 Orkan Über Frankfurt 
3 Land In Sicht 
4 Der Wind Hat Sich Gedreht 
5 Talkshow 
6 Zwei Akkorde 
7 Nur Ein Traum 
8 Bergvagabunden 
9 Lange Wieder Fort 
10 Ich Hab's Geträumt 
11 Punk & Polizei 
12 Staub Und Asche 
13 Allein In Der Masse 
14 Willkommen In Eden 
15 Noch Einmal 18 Sein 
16 Keine Welt Für Verlierer 
17 Kein Wunder 
18 Es Wird Schon Gehen 
19 Tränen Im Nebel 
20 Feierabend 
21 Land Der Ewigkeit

EAC-Log, CUE-Sheed & NFO:

Click to open spoiler
Exact Audio Copy V1.3 from 2. September 2016

EAC extraction logfile from 29. August 2019, 18:31

Das Untergangskommando / … und dann ruft uns die Nacht

Used drive : HL-DT-STDVDRAM GUE0N Adapter: 1 ID: 0

Read mode : Secure
Utilize accurate stream : Yes
Defeat audio cache : Yes
Make use of C2 pointers : No

Read offset correction : 102
Overread into Lead-In and Lead-Out : No
Fill up missing offset samples with silence : Yes
Delete leading and trailing silent blocks : No
Null samples used in CRC calculations : Yes
Used interface : Native Win32 interface for Win NT & 2000
Gap handling : Appended to previous track

Used output format : User Defined Encoder
Selected bitrate : 1024 kBit/s
Quality : High
Add ID3 tag : No
Command line compressor : C:\Program Files (x86)\Exact Audio Copy\FLAC\FLAC.EXE
Additional command line options : -8 -V -T “ARTIST=%artist%” -T “TITLE=%title%” -T “ALBUM=%albumtitle%” -T “DATE=%year%” -T “TRACKNUMBER=%tracknr%” -T “GENRE=%genre%” -T “COMMENT=%comment%” -T “BAND=%albuminterpret%” -T “COMPOSER=%composer%” %haslyrics%–tag-from-file=LYRICS=”%lyricsfile%”%haslyrics% -T “DISCNUMBER=%cdnumber%” -T “TOTALDISCS=%totalcds%” -T “TOTALTRACKS=%numtracks%” %hascover%–picture=”%coverfile%”%hascover% %source% -o %dest%

TOC of the extracted CD

Track | Start | Length | Start sector | End sector
———————————————————
1 | 0:00.00 | 3:55.65 | 0 | 17689
2 | 3:55.65 | 2:36.40 | 17690 | 29429
3 | 6:32.30 | 3:46.74 | 29430 | 46453
4 | 10:19.29 | 4:09.54 | 46454 | 65182
5 | 14:29.08 | 2:51.17 | 65183 | 78024
6 | 17:20.25 | 4:43.46 | 78025 | 99295
7 | 22:03.71 | 5:15.08 | 99296 | 122928
8 | 27:19.04 | 1:28.08 | 122929 | 129536
9 | 28:47.12 | 3:29.65 | 129537 | 145276
10 | 32:17.02 | 4:17.04 | 145277 | 164555
11 | 36:34.06 | 5:04.17 | 164556 | 187372
12 | 41:38.23 | 4:03.18 | 187373 | 205615
13 | 45:41.41 | 4:00.57 | 205616 | 223672
14 | 49:42.23 | 3:30.07 | 223673 | 239429
15 | 53:12.30 | 3:52.01 | 239430 | 256830
16 | 57:04.31 | 2:42.56 | 256831 | 269036
17 | 59:47.12 | 2:09.08 | 269037 | 278719
18 | 61:56.20 | 3:17.13 | 278720 | 293507
19 | 65:13.33 | 2:55.25 | 293508 | 306657
20 | 68:08.58 | 4:55.06 | 306658 | 328788

Track 1

Filename M:\SLAM\www.slam.ws – Lossless Alternative Music\Das Untergangskommando\… und dann ruft uns die Nacht\01. Amok Oma Schock.wav

Pre-gap length 0:00:02.00

Peak level 100.0 %
Extraction speed 2.3 X
Track quality 100.0 %
Copy CRC E20CEF1E
Accurately ripped (confidence 1) [3ADDBDCB] (AR v2)
Copy OK

Track 2

Filename M:\SLAM\www.slam.ws – Lossless Alternative Music\Das Untergangskommando\… und dann ruft uns die Nacht\02. Orkan über Frankfurt.wav

Pre-gap length 0:00:02.00

Peak level 99.9 %
Extraction speed 2.3 X
Track quality 100.0 %
Copy CRC 139D9B41
Accurately ripped (confidence 1) [1564D611] (AR v2)
Copy OK

Track 3

Filename M:\SLAM\www.slam.ws – Lossless Alternative Music\Das Untergangskommando\… und dann ruft uns die Nacht\03. Land in Sicht.wav

Pre-gap length 0:00:02.00

Peak level 100.0 %
Extraction speed 2.6 X
Track quality 100.0 %
Copy CRC 068AA1B0
Accurately ripped (confidence 1) [047C38AE] (AR v2)
Copy OK

Track 4

Filename M:\SLAM\www.slam.ws – Lossless Alternative Music\Das Untergangskommando\… und dann ruft uns die Nacht\04. Der Wind hat sich gedreht.wav

Pre-gap length 0:00:02.00

Peak level 100.0 %
Extraction speed 2.9 X
Track quality 100.0 %
Copy CRC 018372BC
Accurately ripped (confidence 1) [545D0F03] (AR v2)
Copy OK

Track 5

Filename M:\SLAM\www.slam.ws – Lossless Alternative Music\Das Untergangskommando\… und dann ruft uns die Nacht\05. Talkshow.wav

Pre-gap length 0:00:02.00

Peak level 100.0 %
Extraction speed 2.8 X
Track quality 100.0 %
Copy CRC 1629A042
Accurately ripped (confidence 1) [59C5B03A] (AR v2)
Copy OK

Track 6

Filename M:\SLAM\www.slam.ws – Lossless Alternative Music\Das Untergangskommando\… und dann ruft uns die Nacht\06. Zwei Akkorde.wav

Pre-gap length 0:00:02.00

Peak level 100.0 %
Extraction speed 3.3 X
Track quality 100.0 %
Copy CRC 746161E4
Accurately ripped (confidence 1) [6A69D9AE] (AR v2)
Copy OK

Track 7

Filename M:\SLAM\www.slam.ws – Lossless Alternative Music\Das Untergangskommando\… und dann ruft uns die Nacht\07. Nur ein Traum.wav

Pre-gap length 0:00:02.00

Peak level 100.0 %
Extraction speed 3.5 X
Track quality 100.0 %
Copy CRC 7E0F28E2
Accurately ripped (confidence 1) [8A1EA8A9] (AR v2)
Copy OK

Track 8

Filename M:\SLAM\www.slam.ws – Lossless Alternative Music\Das Untergangskommando\… und dann ruft uns die Nacht\08. Bergvagabunden.wav

Pre-gap length 0:00:02.00

Peak level 100.0 %
Extraction speed 2.6 X
Track quality 100.0 %
Copy CRC 2CDB3243
Accurately ripped (confidence 1) [6A496E13] (AR v2)
Copy OK

Track 9

Filename M:\SLAM\www.slam.ws – Lossless Alternative Music\Das Untergangskommando\… und dann ruft uns die Nacht\09. Lange wieder fort.wav

Pre-gap length 0:00:02.00

Peak level 99.9 %
Extraction speed 3.7 X
Track quality 100.0 %
Copy CRC B6E59906
Accurately ripped (confidence 1) [20B95C14] (AR v2)
Copy OK

Track 10

Filename M:\SLAM\www.slam.ws – Lossless Alternative Music\Das Untergangskommando\… und dann ruft uns die Nacht\10. Ich hab’s geträumt.wav

Pre-gap length 0:00:02.00

Peak level 100.0 %
Extraction speed 3.7 X
Track quality 100.0 %
Copy CRC C4E88DD9
Accurately ripped (confidence 1) [CF7AFF0A] (AR v2)
Copy OK

Track 11

Filename M:\SLAM\www.slam.ws – Lossless Alternative Music\Das Untergangskommando\… und dann ruft uns die Nacht\11. Punk und Polizei.wav

Pre-gap length 0:00:02.00

Peak level 100.0 %
Extraction speed 4.0 X
Track quality 100.0 %
Copy CRC B94AA39F
Accurately ripped (confidence 1) [3DD8DA5A] (AR v2)
Copy OK

Track 12

Filename M:\SLAM\www.slam.ws – Lossless Alternative Music\Das Untergangskommando\… und dann ruft uns die Nacht\12. Staub und Asche.wav

Pre-gap length 0:00:02.00

Peak level 99.9 %
Extraction speed 3.9 X
Track quality 100.0 %
Copy CRC B42889F2
Accurately ripped (confidence 1) [7B8CB2FF] (AR v2)
Copy OK

Track 13

Filename M:\SLAM\www.slam.ws – Lossless Alternative Music\Das Untergangskommando\… und dann ruft uns die Nacht\13. Allein in der Masse.wav

Pre-gap length 0:00:02.00

Peak level 99.4 %
Extraction speed 4.0 X
Track quality 100.0 %
Copy CRC C510BC7E
Accurately ripped (confidence 1) [E9ADD980] (AR v2)
Copy OK

Track 14

Filename M:\SLAM\www.slam.ws – Lossless Alternative Music\Das Untergangskommando\… und dann ruft uns die Nacht\14. Willkommen in Eden.wav

Pre-gap length 0:00:02.00

Peak level 100.0 %
Extraction speed 3.9 X
Track quality 100.0 %
Copy CRC 4511740B
Accurately ripped (confidence 1) [25BD6EE0] (AR v2)
Copy OK

Track 15

Filename M:\SLAM\www.slam.ws – Lossless Alternative Music\Das Untergangskommando\… und dann ruft uns die Nacht\15. Noch einmal 18 sein.wav

Pre-gap length 0:00:02.00

Peak level 100.0 %
Extraction speed 4.1 X
Track quality 100.0 %
Copy CRC 9308805B
Accurately ripped (confidence 1) [00521A99] (AR v2)
Copy OK

Track 16

Filename M:\SLAM\www.slam.ws – Lossless Alternative Music\Das Untergangskommando\… und dann ruft uns die Nacht\16. Kein Welt für Verliere.wav

Peak level 100.0 %
Extraction speed 3.9 X
Track quality 100.0 %
Copy CRC 05C09A0A
Accurately ripped (confidence 1) [8025EE3F] (AR v2)
Copy OK

Track 17

Filename M:\SLAM\www.slam.ws – Lossless Alternative Music\Das Untergangskommando\… und dann ruft uns die Nacht\17. Kein Wunder.wav

Peak level 100.0 %
Extraction speed 2.7 X
Track quality 99.9 %
Copy CRC 45861F12
Accurately ripped (confidence 1) [4D82D6C1] (AR v2)
Copy OK

Track 18

Filename M:\SLAM\www.slam.ws – Lossless Alternative Music\Das Untergangskommando\… und dann ruft uns die Nacht\18. Es wird schon gehn.wav

Peak level 100.0 %
Extraction speed 3.4 X
Track quality 99.9 %
Copy CRC 7721A871
Accurately ripped (confidence 1) [61EC8BDD] (AR v2)
Copy OK

Track 19

Filename M:\SLAM\www.slam.ws – Lossless Alternative Music\Das Untergangskommando\… und dann ruft uns die Nacht\19. Tränen im Nebel.wav

Peak level 100.0 %
Extraction speed 4.2 X
Track quality 100.0 %
Copy CRC 586FAFE4
Accurately ripped (confidence 1) [42162FC5] (AR v2)
Copy OK

Track 20

Filename M:\SLAM\www.slam.ws – Lossless Alternative Music\Das Untergangskommando\… und dann ruft uns die Nacht\20. Land der Ewigkeit.wav

Peak level 99.9 %
Extraction speed 4.7 X
Track quality 100.0 %
Copy CRC 0D8C15FC
Accurately ripped (confidence 1) [FDEB9259] (AR v2)
Copy OK

All tracks accurately ripped

No errors occurred

End of status report

—- CUETools DB Plugin V2.1.6

[CTDB TOCID: wskdtu5E9eEMgckF6RWRCJwZQGM-] found
Submit result: wskdtu5E9eEMgckF6RWRCJwZQGM- has been confirmed
Track | CTDB Status
1 | (1/1) Accurately ripped
2 | (1/1) Accurately ripped
3 | (1/1) Accurately ripped
4 | (1/1) Accurately ripped
5 | (1/1) Accurately ripped
6 | (1/1) Accurately ripped
7 | (1/1) Accurately ripped
8 | (1/1) Accurately ripped
9 | (1/1) Accurately ripped
10 | (1/1) Accurately ripped
11 | (1/1) Accurately ripped
12 | (1/1) Accurately ripped
13 | (1/1) Accurately ripped
14 | (1/1) Accurately ripped
15 | (1/1) Accurately ripped
16 | (1/1) Accurately ripped
17 | (1/1) Accurately ripped
18 | (1/1) Accurately ripped
19 | (1/1) Accurately ripped
20 | (1/1) Accurately ripped

==== Log checksum 476B6ADA498FF0259D9C012D27A88E0C0D2930D2593863430FE949E9AF94FE92 ====

REM GENRE Rock
REM DISCID 2A111F14
REM COMMENT “ExactAudioCopy v1.3”
PERFORMER “Das Untergangskommando”
TITLE “… und dann ruft uns die Nacht”
REM COMPOSER “”
FILE “Das Untergangskommando\… und dann ruft uns die Nacht\01. Amok Oma Schock.wav” WAVE
TRACK 01 AUDIO
TITLE “Amok Oma Schock”
PERFORMER “Das Untergangskommando”
REM COMPOSER “”
FLAGS DCP
INDEX 01 00:00:00
TRACK 02 AUDIO
TITLE “Orkan über Frankfurt”
PERFORMER “Das Untergangskommando”
REM COMPOSER “”
FLAGS DCP
INDEX 00 03:53:65
FILE “Das Untergangskommando\… und dann ruft uns die Nacht\02. Orkan über Frankfurt.wav” WAVE
INDEX 01 00:00:00
TRACK 03 AUDIO
TITLE “Land in Sicht”
PERFORMER “Das Untergangskommando”
REM COMPOSER “”
FLAGS DCP
INDEX 00 02:34:40
FILE “Das Untergangskommando\… und dann ruft uns die Nacht\03. Land in Sicht.wav” WAVE
INDEX 01 00:00:00
TRACK 04 AUDIO
TITLE “Der Wind hat sich gedreht”
PERFORMER “Das Untergangskommando”
REM COMPOSER “”
FLAGS DCP
INDEX 00 03:44:74
FILE “Das Untergangskommando\… und dann ruft uns die Nacht\04. Der Wind hat sich gedreht.wav” WAVE
INDEX 01 00:00:00
TRACK 05 AUDIO
TITLE “Talkshow”
PERFORMER “Das Untergangskommando”
REM COMPOSER “”
FLAGS DCP
INDEX 00 04:07:54
FILE “Das Untergangskommando\… und dann ruft uns die Nacht\05. Talkshow.wav” WAVE
INDEX 01 00:00:00
TRACK 06 AUDIO
TITLE “Zwei Akkorde”
PERFORMER “Das Untergangskommando”
REM COMPOSER “”
FLAGS DCP
INDEX 00 02:49:17
FILE “Das Untergangskommando\… und dann ruft uns die Nacht\06. Zwei Akkorde.wav” WAVE
INDEX 01 00:00:00
TRACK 07 AUDIO
TITLE “Nur ein Traum”
PERFORMER “Das Untergangskommando”
REM COMPOSER “”
FLAGS DCP
INDEX 00 04:41:46
FILE “Das Untergangskommando\… und dann ruft uns die Nacht\07. Nur ein Traum.wav” WAVE
INDEX 01 00:00:00
TRACK 08 AUDIO
TITLE “Bergvagabunden”
PERFORMER “Das Untergangskommando”
REM COMPOSER “”
FLAGS DCP
INDEX 00 05:13:08
FILE “Das Untergangskommando\… und dann ruft uns die Nacht\08. Bergvagabunden.wav” WAVE
INDEX 01 00:00:00
TRACK 09 AUDIO
TITLE “Lange wieder fort”
PERFORMER “Das Untergangskommando”
REM COMPOSER “”
FLAGS DCP
INDEX 00 01:26:08
FILE “Das Untergangskommando\… und dann ruft uns die Nacht\09. Lange wieder fort.wav” WAVE
INDEX 01 00:00:00
TRACK 10 AUDIO
TITLE “Ich hab’s geträumt”
PERFORMER “Das Untergangskommando”
REM COMPOSER “”
FLAGS DCP
INDEX 00 03:27:65
FILE “Das Untergangskommando\… und dann ruft uns die Nacht\10. Ich hab’s geträumt.wav” WAVE
INDEX 01 00:00:00
TRACK 11 AUDIO
TITLE “Punk und Polizei”
PERFORMER “Das Untergangskommando”
REM COMPOSER “”
FLAGS DCP
INDEX 00 04:15:04
FILE “Das Untergangskommando\… und dann ruft uns die Nacht\11. Punk und Polizei.wav” WAVE
INDEX 01 00:00:00
TRACK 12 AUDIO
TITLE “Staub und Asche”
PERFORMER “Das Untergangskommando”
REM COMPOSER “”
FLAGS DCP
INDEX 00 05:02:17
FILE “Das Untergangskommando\… und dann ruft uns die Nacht\12. Staub und Asche.wav” WAVE
INDEX 01 00:00:00
TRACK 13 AUDIO
TITLE “Allein in der Masse”
PERFORMER “Das Untergangskommando”
REM COMPOSER “”
FLAGS DCP
INDEX 00 04:01:18
FILE “Das Untergangskommando\… und dann ruft uns die Nacht\13. Allein in der Masse.wav” WAVE
INDEX 01 00:00:00
TRACK 14 AUDIO
TITLE “Willkommen in Eden”
PERFORMER “Das Untergangskommando”
REM COMPOSER “”
FLAGS DCP
INDEX 00 03:58:57
FILE “Das Untergangskommando\… und dann ruft uns die Nacht\14. Willkommen in Eden.wav” WAVE
INDEX 01 00:00:00
TRACK 15 AUDIO
TITLE “Noch einmal 18 sein”
PERFORMER “Das Untergangskommando”
REM COMPOSER “”
FLAGS DCP
INDEX 00 03:28:07
FILE “Das Untergangskommando\… und dann ruft uns die Nacht\15. Noch einmal 18 sein.wav” WAVE
INDEX 01 00:00:00
FILE “Das Untergangskommando\… und dann ruft uns die Nacht\16. Kein Welt für Verliere.wav” WAVE
TRACK 16 AUDIO
TITLE “Kein Welt für Verliere”
PERFORMER “Das Untergangskommando”
REM COMPOSER “”
FLAGS DCP
INDEX 01 00:00:00
FILE “Das Untergangskommando\… und dann ruft uns die Nacht\17. Kein Wunder.wav” WAVE
TRACK 17 AUDIO
TITLE “Kein Wunder”
PERFORMER “Das Untergangskommando”
REM COMPOSER “”
FLAGS DCP
INDEX 01 00:00:00
FILE “Das Untergangskommando\… und dann ruft uns die Nacht\18. Es wird schon gehn.wav” WAVE
TRACK 18 AUDIO
TITLE “Es wird schon gehn”
PERFORMER “Das Untergangskommando”
REM COMPOSER “”
FLAGS DCP
INDEX 01 00:00:00
FILE “Das Untergangskommando\… und dann ruft uns die Nacht\19. Tränen im Nebel.wav” WAVE
TRACK 19 AUDIO
TITLE “Tränen im Nebel”
PERFORMER “Das Untergangskommando”
REM COMPOSER “”
FLAGS DCP
INDEX 01 00:00:00
FILE “Das Untergangskommando\… und dann ruft uns die Nacht\20. Land der Ewigkeit.wav” WAVE
TRACK 20 AUDIO
TITLE “Land der Ewigkeit”
PERFORMER “Das Untergangskommando”
REM COMPOSER “”
FLAGS DCP
INDEX 01 00:00:00


Leave a Reply

Your email address will not be published. Required fields are marked *

Enter the text from the image below
 

This site uses Akismet to reduce spam. Learn how your comment data is processed.