Das Untergangskommando – Tatort Aldi




No Cover available

Artist: Das Untergangskommando
Year: 1996
Genre: Punk
Notes: Discogs
Add. Notes:
Watch Songs on: YouTube
Cover incl.: Yes
Encoder: FLAC
Bitrate: ~1000 kBit/s (44.1 kHz/16 Bit/s)
Log & Cue incl.: Yes/Yes
Size: 390 MB
Password: “slam” (without ” “)


All Downloads/Hosters are compatible

Download 1
KatFile.com
Turbobit.net
FileFactory.com
Rapidgator.net
Download 2
KatFile.com
Turbobit.net
FileFactory.com
Rapidgator.net

Tracklist:

1 Tatort Aldi 2:45
2 Atemnot 2:43
3 Geheime Wünsche 2:46
4 Bullenstaat 2:40
5 Himmel 2:22
6 Noch Einmal 18 Sein 3:52
7 Bill Gates  Datenautobahn 2:48
8 Leuchtturm 2:41
9 Zelle 17/34 4:05
10 Das Verlorene Paradies 3:25
11 Freunde Aus Irgendwo 3:59
12 Reality TV 3:33
13 Emmanuelle 3:30
14 Anarchie Im Neandertal 4:53
15 Tränen Im Nebel (+Hidden Track) 19:36

EAC-Log, CUE-Sheed & NFO:

Click to open spoiler
Exact Audio Copy V1.3 from 2. September 2016

EAC extraction logfile from 27. February 2019, 19:09

Das Untergangskommando / Tatort Aldi

Used drive : HL-DT-STDVDRAM GUE0N Adapter: 1 ID: 0

Read mode : Secure
Utilize accurate stream : Yes
Defeat audio cache : Yes
Make use of C2 pointers : No

Read offset correction : 102
Overread into Lead-In and Lead-Out : No
Fill up missing offset samples with silence : Yes
Delete leading and trailing silent blocks : No
Null samples used in CRC calculations : Yes
Used interface : Native Win32 interface for Win NT & 2000
Gap handling : Appended to previous track

Used output format : User Defined Encoder
Selected bitrate : 1024 kBit/s
Quality : High
Add ID3 tag : No
Command line compressor : C:\Program Files (x86)\Exact Audio Copy\FLAC\FLAC.EXE
Additional command line options : -8 -V -T “ARTIST=%artist%” -T “TITLE=%title%” -T “ALBUM=%albumtitle%” -T “DATE=%year%” -T “TRACKNUMBER=%tracknr%” -T “GENRE=%genre%” -T “COMMENT=%comment%” -T “BAND=%albuminterpret%” -T “COMPOSER=%composer%” %haslyrics%–tag-from-file=LYRICS=”%lyricsfile%”%haslyrics% -T “DISCNUMBER=%cdnumber%” -T “TOTALDISCS=%totalcds%” -T “TOTALTRACKS=%numtracks%” %hascover%–picture=”%coverfile%”%hascover% %source% -o %dest%

TOC of the extracted CD

Track | Start | Length | Start sector | End sector
———————————————————
1 | 0:00.00 | 2:45.42 | 0 | 12416
2 | 2:45.42 | 2:43.30 | 12417 | 24671
3 | 5:28.72 | 2:46.63 | 24672 | 37184
4 | 8:15.60 | 2:40.65 | 37185 | 49249
5 | 10:56.50 | 2:22.70 | 49250 | 59969
6 | 13:19.45 | 3:52.25 | 59970 | 77394
7 | 17:11.70 | 2:48.65 | 77395 | 90059
8 | 20:00.60 | 2:41.22 | 90060 | 102156
9 | 22:42.07 | 4:05.68 | 102157 | 120599
10 | 26:48.00 | 3:25.15 | 120600 | 135989
11 | 30:13.15 | 3:59.42 | 135990 | 153956
12 | 34:12.57 | 3:33.23 | 153957 | 169954
13 | 37:46.05 | 3:30.10 | 169955 | 185714
14 | 41:16.15 | 4:53.37 | 185715 | 207726
15 | 46:09.52 | 19:36.05 | 207727 | 295931

Track 1

Filename D:\Eigene Musik\Das Untergangskommando\Tatort Aldi\01. Tatort Aldi.wav

Pre-gap length 0:00:02.00

Peak level 98.8 %
Extraction speed 2.0 X
Track quality 100.0 %
Copy CRC 190E8D0D
Accurately ripped (confidence 2) [8332902C] (AR v2)
Copy OK

Track 2

Filename D:\Eigene Musik\Das Untergangskommando\Tatort Aldi\02. Atemnot.wav

Peak level 98.8 %
Extraction speed 2.3 X
Track quality 100.0 %
Copy CRC C5723049
Accurately ripped (confidence 2) [F5D4234D] (AR v2)
Copy OK

Track 3

Filename D:\Eigene Musik\Das Untergangskommando\Tatort Aldi\03. Geheime Wünsche.wav

Peak level 98.8 %
Extraction speed 2.4 X
Track quality 100.0 %
Copy CRC 2A563F70
Accurately ripped (confidence 2) [AE8C84BC] (AR v2)
Copy OK

Track 4

Filename D:\Eigene Musik\Das Untergangskommando\Tatort Aldi\04. Bullenstaat.wav

Pre-gap length 0:00:00.01

Peak level 98.8 %
Extraction speed 2.5 X
Track quality 100.0 %
Copy CRC C804C288
Accurately ripped (confidence 2) [AD7ECF44] (AR v2)
Copy OK

Track 5

Filename D:\Eigene Musik\Das Untergangskommando\Tatort Aldi\05. Himmel.wav

Pre-gap length 0:00:01.01

Peak level 98.8 %
Extraction speed 2.1 X
Track quality 100.0 %
Copy CRC 4D51FAD9
Accurately ripped (confidence 2) [BEECBAB0] (AR v2)
Copy OK

Track 6

Filename D:\Eigene Musik\Das Untergangskommando\Tatort Aldi\06. Noch einmal 18 sein.wav

Pre-gap length 0:00:01.01

Peak level 98.8 %
Extraction speed 1.6 X
Track quality 100.0 %
Copy CRC 4E25B4E5
Accurately ripped (confidence 2) [9244E056] (AR v2)
Copy OK

Track 7

Filename D:\Eigene Musik\Das Untergangskommando\Tatort Aldi\07. Bill Gates’ Autobahn.wav

Pre-gap length 0:00:00.01

Peak level 98.8 %
Extraction speed 2.9 X
Track quality 100.0 %
Copy CRC 9CE7F9B4
Accurately ripped (confidence 2) [2E404FA1] (AR v2)
Copy OK

Track 8

Filename D:\Eigene Musik\Das Untergangskommando\Tatort Aldi\08. Leuchtturm.wav

Pre-gap length 0:00:00.01

Peak level 98.8 %
Extraction speed 2.9 X
Track quality 100.0 %
Copy CRC D4F64DBB
Accurately ripped (confidence 2) [C6C7C1CF] (AR v2)
Copy OK

Track 9

Filename D:\Eigene Musik\Das Untergangskommando\Tatort Aldi\09. Zelle 17-34.wav

Peak level 98.8 %
Extraction speed 3.4 X
Track quality 100.0 %
Copy CRC 3902F65A
Accurately ripped (confidence 2) [54E2F824] (AR v2)
Copy OK

Track 10

Filename D:\Eigene Musik\Das Untergangskommando\Tatort Aldi\10. Das verlorene Paradies.wav

Pre-gap length 0:00:04.03

Peak level 98.8 %
Extraction speed 2.8 X
Track quality 99.9 %
Copy CRC 1E30A0A8
Accurately ripped (confidence 2) [CF3904FD] (AR v2)
Copy OK

Track 11

Filename D:\Eigene Musik\Das Untergangskommando\Tatort Aldi\11. Freunde aus Irgendwo.wav

Pre-gap length 0:00:13.71

Peak level 98.8 %
Extraction speed 3.6 X
Track quality 100.0 %
Copy CRC E49DC3B9
Accurately ripped (confidence 2) [FD900D01] (AR v2)
Copy OK

Track 12

Filename D:\Eigene Musik\Das Untergangskommando\Tatort Aldi\12. Reality TV.wav

Peak level 98.8 %
Extraction speed 3.6 X
Track quality 100.0 %
Copy CRC E16FF220
Accurately ripped (confidence 2) [DB4C422F] (AR v2)
Copy OK

Track 13

Filename D:\Eigene Musik\Das Untergangskommando\Tatort Aldi\13. Emmanuelle.wav

Pre-gap length 0:00:15.66

Peak level 98.8 %
Extraction speed 3.1 X
Track quality 99.9 %
Copy CRC 7FFC2033
Accurately ripped (confidence 2) [855102D1] (AR v2)
Copy OK

Track 14

Filename D:\Eigene Musik\Das Untergangskommando\Tatort Aldi\14. Anarchie im Neandertal.wav

Pre-gap length 0:00:00.01

Peak level 98.8 %
Extraction speed 3.6 X
Track quality 99.9 %
Copy CRC B8CEEB90
Accurately ripped (confidence 2) [ED8A83A4] (AR v2)
Copy OK

Track 15

Filename D:\Eigene Musik\Das Untergangskommando\Tatort Aldi\15. Tränen im Nebel.wav

Peak level 98.8 %
Extraction speed 5.0 X
Track quality 100.0 %
Copy CRC 5EA6A293
Accurately ripped (confidence 2) [7A83D188] (AR v2)
Copy OK

All tracks accurately ripped

No errors occurred

End of status report

—- CUETools DB Plugin V2.1.6

[CTDB TOCID: lqU4DoTsQiEm1skQfk4ipmMbTEo-] found
Submit result: lqU4DoTsQiEm1skQfk4ipmMbTEo- has been confirmed
Track | CTDB Status
1 | (1/1) Accurately ripped
2 | (1/1) Accurately ripped
3 | (1/1) Accurately ripped
4 | (1/1) Accurately ripped
5 | (1/1) Accurately ripped
6 | (1/1) Accurately ripped
7 | (1/1) Accurately ripped
8 | (1/1) Accurately ripped
9 | (1/1) Accurately ripped
10 | (1/1) Accurately ripped
11 | (1/1) Accurately ripped
12 | (1/1) Accurately ripped
13 | (1/1) Accurately ripped
14 | (1/1) Accurately ripped
15 | (1/1) Accurately ripped

==== Log checksum F438B339EC6F800FBB11B1DF2AD291A991F1671243AD6384DC8A961A055BA9E7 ====

——————————————————-

REM GENRE Punk
REM DATE 1996
REM DISCID BA0F690F
REM COMMENT “ExactAudioCopy v1.3”
PERFORMER “Das Untergangskommando”
TITLE “Tatort Aldi”
REM COMPOSER “”
FILE “Das Untergangskommando\Tatort Aldi\01. Tatort Aldi.wav” WAVE
TRACK 01 AUDIO
TITLE “Tatort Aldi”
PERFORMER “Das Untergangskommando”
REM COMPOSER “”
INDEX 01 00:00:00
FILE “Das Untergangskommando\Tatort Aldi\02. Atemnot.wav” WAVE
TRACK 02 AUDIO
TITLE “Atemnot”
PERFORMER “Das Untergangskommando”
REM COMPOSER “”
INDEX 01 00:00:00
FILE “Das Untergangskommando\Tatort Aldi\03. Geheime Wünsche.wav” WAVE
TRACK 03 AUDIO
TITLE “Geheime Wünsche”
PERFORMER “Das Untergangskommando”
REM COMPOSER “”
INDEX 01 00:00:00
TRACK 04 AUDIO
TITLE “Bullenstaat”
PERFORMER “Das Untergangskommando”
REM COMPOSER “”
INDEX 00 02:46:62
FILE “Das Untergangskommando\Tatort Aldi\04. Bullenstaat.wav” WAVE
INDEX 01 00:00:00
TRACK 05 AUDIO
TITLE “Himmel”
PERFORMER “Das Untergangskommando”
REM COMPOSER “”
INDEX 00 02:39:64
FILE “Das Untergangskommando\Tatort Aldi\05. Himmel.wav” WAVE
INDEX 01 00:00:00
TRACK 06 AUDIO
TITLE “Noch einmal 18 sein”
PERFORMER “Das Untergangskommando”
REM COMPOSER “”
INDEX 00 02:21:69
FILE “Das Untergangskommando\Tatort Aldi\06. Noch einmal 18 sein.wav” WAVE
INDEX 01 00:00:00
TRACK 07 AUDIO
TITLE “Bill Gates’ Autobahn”
PERFORMER “Das Untergangskommando”
REM COMPOSER “”
INDEX 00 03:52:24
FILE “Das Untergangskommando\Tatort Aldi\07. Bill Gates’ Autobahn.wav” WAVE
INDEX 01 00:00:00
TRACK 08 AUDIO
TITLE “Leuchtturm”
PERFORMER “Das Untergangskommando”
REM COMPOSER “”
INDEX 00 02:48:64
FILE “Das Untergangskommando\Tatort Aldi\08. Leuchtturm.wav” WAVE
INDEX 01 00:00:00
FILE “Das Untergangskommando\Tatort Aldi\09. Zelle 17-34.wav” WAVE
TRACK 09 AUDIO
TITLE “Zelle 17-34”
PERFORMER “Das Untergangskommando”
REM COMPOSER “”
INDEX 01 00:00:00
TRACK 10 AUDIO
TITLE “Das verlorene Paradies”
PERFORMER “Das Untergangskommando”
REM COMPOSER “”
INDEX 00 04:01:65
FILE “Das Untergangskommando\Tatort Aldi\10. Das verlorene Paradies.wav” WAVE
INDEX 01 00:00:00
TRACK 11 AUDIO
TITLE “Freunde aus Irgendwo”
PERFORMER “Das Untergangskommando”
REM COMPOSER “”
INDEX 00 03:11:19
FILE “Das Untergangskommando\Tatort Aldi\11. Freunde aus Irgendwo.wav” WAVE
INDEX 01 00:00:00
FILE “Das Untergangskommando\Tatort Aldi\12. Reality TV.wav” WAVE
TRACK 12 AUDIO
TITLE “Reality TV”
PERFORMER “Das Untergangskommando”
REM COMPOSER “”
INDEX 01 00:00:00
TRACK 13 AUDIO
TITLE “Emmanuelle”
PERFORMER “Das Untergangskommando”
REM COMPOSER “”
INDEX 00 03:17:32
FILE “Das Untergangskommando\Tatort Aldi\13. Emmanuelle.wav” WAVE
INDEX 01 00:00:00
TRACK 14 AUDIO
TITLE “Anarchie im Neandertal”
PERFORMER “Das Untergangskommando”
REM COMPOSER “”
INDEX 00 03:30:09
FILE “Das Untergangskommando\Tatort Aldi\14. Anarchie im Neandertal.wav” WAVE
INDEX 01 00:00:00
FILE “Das Untergangskommando\Tatort Aldi\15. Tränen im Nebel.wav” WAVE
TRACK 15 AUDIO
TITLE “Tränen im Nebel”
PERFORMER “Das Untergangskommando”
REM COMPOSER “”
INDEX 01 00:00:00


Leave a Reply

Your email address will not be published. Required fields are marked *

Enter the text from the image below
 

This site uses Akismet to reduce spam. Learn how your comment data is processed.