Crematory – Unbroken




No Cover available


Artist: Crematory
Year: 2020
Genre: Metal
Notes: Discogs
Add. Notes:
Watch Songs on: YouTube
Cover incl.: Yes
Encoder: FLAC
Bitrate: ~800 kBit/s (44.1 kHz/16 Bit/s)
Log & Cue incl.: Yes/Yes
Size: 503,6 MB
Password: “slam” (without ” “)


All Downloads/Hosters are compatible

Download 1
KatFile.com
Turbobit.net
Rapidgator.net
FileFactory.com
Download 2
KatFile.com
Turbobit.net
Rapidgator.net
FileFactory.com

Tracklist:

01. Unbroken (4:28)
02. Awaits Me (4:09)
03. Rise and Fall (5:00)
04. Behind the Wall (4:32)
05. The Kingdom (4:26)
06. Inside My Heart (5:24)
07. The Downfall (4:02)
08. My Dreams Have Died (4:51)
09. I Am (3:58)
10. Broken Heroes (4:29)
11. A Piece of Time (4:45)
12. Voices (4:25)
13. Abduction (3:42)
14. As Darkness Calls (4:28)
15. Like the Tides (3:55)

EAC-Log, CUE-Sheed & NFO:

Click to open spoiler
CUE Corrector v. 8.3.6 / b. 967 (Feb. 23, 2020)
————————————————————————————————————————————————————————————————————————
Crematory / Unbroken

Folder: Crematory – 2020 – Unbroken [FLAC]
Audio files:
01 Unbroken.flac [04:28.240; FLAC • 1095 kbps • 16 bit \ 44100 Hz • stereo; 35,05 MB (36 748 139 B)]
02 Awaits Me.flac [04:08.747; FLAC • 1126 kbps • 16 bit \ 44100 Hz • stereo; 33,41 MB (35 031 395 B)]
03 Rise and Fall.flac [04:59.733; FLAC • 1065 kbps • 16 bit \ 44100 Hz • stereo; 38,07 MB (39 921 750 B)]
04 Behind the Wall.flac [04:31.640; FLAC • 1073 kbps • 16 bit \ 44100 Hz • stereo; 34,78 MB (36 466 823 B)]
05 The Kingdom.flac [04:25.613; FLAC • 1061 kbps • 16 bit \ 44100 Hz • stereo; 33,62 MB (35 249 249 B)]
06 Inside My Heart.flac [05:24.320; FLAC • 1044 kbps • 16 bit \ 44100 Hz • stereo; 40,38 MB (42 339 456 B)]
07 The Downfall.flac [04:02.160; FLAC • 1075 kbps • 16 bit \ 44100 Hz • stereo; 31,05 MB (32 557 174 B)]
08 My Dreams Have Died.flac [04:50.760; FLAC • 1110 kbps • 16 bit \ 44100 Hz • stereo; 38,50 MB (40 370 397 B)]
09 I Am.flac [03:58.027; FLAC • 1066 kbps • 16 bit \ 44100 Hz • stereo; 30,27 MB (31 739 827 B)]
10 Broken Heroes.flac [04:28.827; FLAC • 1017 kbps • 16 bit \ 44100 Hz • stereo; 32,60 MB (34 181 335 B)]
11 A Piece of Time.flac [04:45.480; FLAC • 1106 kbps • 16 bit \ 44100 Hz • stereo; 37,66 MB (39 484 559 B)]
12 Voices.flac [04:24.933; FLAC • 1046 kbps • 16 bit \ 44100 Hz • stereo; 33,05 MB (34 655 019 B)]
13 Abduction.flac [03:41.693; FLAC • 1079 kbps • 16 bit \ 44100 Hz • stereo; 28,53 MB (29 912 483 B)]
14 As Darkness Calls.flac [04:28.307; FLAC • 1065 kbps • 16 bit \ 44100 Hz • stereo; 34,08 MB (35 734 034 B)]
15 Like the Tides.flac [03:55.187; FLAC • 803 kbps • 16 bit \ 44100 Hz • stereo; 22,54 MB (23 631 720 B)]

Accuracy: -m3

File 01 Unbroken – 100% CDDA [04:28:18]
File 02 Awaits Me – 100% CDDA [04:08:56]
File 03 Rise and Fall – 100% CDDA [04:59:55]
File 04 Behind the Wall – 100% CDDA [04:31:48]
File 05 The Kingdom – 100% CDDA [04:25:46]
File 06 Inside My Heart – 100% CDDA [05:24:24]
File 07 The Downfall – 100% CDDA [04:02:12]
File 08 My Dreams Have Died – 100% CDDA [04:50:57]
File 09 I Am – 100% CDDA [03:58:02]
File 10 Broken Heroes – 100% CDDA [04:28:62]
File 11 A Piece of Time – 100% CDDA [04:45:36]
File 12 Voices – 100% CDDA [04:24:70]
File 13 Abduction – 100% CDDA [03:41:52]
File 14 As Darkness Calls – 100% CDDA [04:28:23]
File 15 Like the Tides – 100% CDDA [03:55:14]
————— Summary: —————
These tracks looks like CDDA with probability 100%.
————————————————————————————————————————————————————————————————————————

ANALYZER:
auCDtect: CD records authenticity detector, version 0.8.2
Copyright (c) 2004 Oleg Berngardt. All rights reserved.
Copyright (c) 2004 Alexander Djourik. All rights reserved.

Time elapsed: 47.6 s
Log created at March 05, 2020 18:57:54

=== AF63EFDF6DA52AC4B29E0279404CF6527B1684FE60141BC896935B13A3A97AFF ===

[свернуть]
CUETools

[CUETools log; Date: 06.03.2020 14:42:49; Version: 2.1.6]
[CTDB TOCID: hBhQLexPaY5HTvykX8tZS256fuo-] disk not present in database.
[AccurateRip ID: 00253c00-01a522fa-b40f990f] disk not present in database.

Track Peak [ CRC32 ] [W/O NULL]
— 98,8 [5EB7DF6C] [5CF07834]
01 98,8 [2BA6B323] [A6B32916]
02 98,8 [EA5C6C2A] [63B0D589]
03 98,8 [0DA936F4] [7E5D930D]
04 98,8 [8DEEF8C5] [23DD3180]
05 98,8 [B85AD2FC] [E8FB76D8]
06 98,8 [55A18BAA] [3E4E17CC]
07 98,8 [F0E78009] [F6F40BFB]
08 98,8 [757A20F8] [930D9708]
09 98,8 [65D2253B] [863B642A]
10 98,8 [3DF6731B] [5914BD10]
11 98,8 [A2BBB4FA] [B944E4AF]
12 98,8 [9418A70E] [DAC743A3]
13 98,8 [F97DB3E2] [7CAEEACD]
14 98,8 [427C8544] [296EC78E]
15 98,8 [8D1FA3A6] [022393A6]

[свернуть]
DR

foobar2000 1.5.1 / Замер динамического диапазона (DR) 1.1.1
Дата отчёта: 2020-03-05 18:57:29

——————————————————————————–
Анализ: Crematory / Unbroken
——————————————————————————–

DR Пики RMS Продолжительность трека
——————————————————————————–
DR6 -0.10 дБ -7.15 дБ 4:28 01-Unbroken
DR6 -0.10 дБ -6.84 дБ 4:09 02-Awaits Me
DR6 -0.10 дБ -7.09 дБ 5:00 03-Rise and Fall
DR6 -0.10 дБ -7.21 дБ 4:32 04-Behind the Wall
DR5 -0.10 дБ -6.34 дБ 4:26 05-The Kingdom
DR6 -0.10 дБ -7.12 дБ 5:24 06-Inside My Heart
DR6 -0.10 дБ -6.76 дБ 4:02 07-The Downfall
DR6 -0.10 дБ -6.39 дБ 4:51 08-My Dreams Have Died
DR6 -0.10 дБ -6.71 дБ 3:58 09-I Am
DR6 -0.10 дБ -7.15 дБ 4:29 10-Broken Heroes
DR6 -0.10 дБ -6.53 дБ 4:45 11-A Piece of Time
DR6 -0.10 дБ -6.88 дБ 4:25 12-Voices
DR6 -0.10 дБ -6.97 дБ 3:42 13-Abduction
DR6 -0.10 дБ -6.84 дБ 4:28 14-As Darkness Calls
DR9 -0.10 дБ -11.78 дБ 3:55 15-Like the Tides
——————————————————————————–

Количество треков: 15
Реальные значения DR: DR6

Частота: 44100 Гц
Каналов: 2
Разрядность: 16
Битрейт: 787 кбит/с
Кодек: FLAC
================================================================================


Leave a Reply

Your email address will not be published. Required fields are marked *

Enter the text from the image below
 

This site uses Akismet to reduce spam. Learn how your comment data is processed.