Coldplay – Everyday Life




Artist: Coldplay
Year: 2019
Genre: Rock
Notes: Discogs
Add. Notes:
Cover incl.: No
Encoder: FLAC
Bitrate: ~700 kBit/s (44.1 kHz/16 Bit/s)
Log & Cue incl.: Yes
Size: 311 MB
Password: “slam” (without ” “)


All Downloads/Hosters are compatible

Download 1
KatFile.com
Turbobit.net
FileFactory.com
Rapidgator.net
Download 2
KatFile.com
Turbobit.net
FileFactory.com
Rapidgator.net

Tracklist:

CD1 - Sunrise:
01. Sunrise
02. Church
03. Trouble In Town
04. BrokEn
05. Daddy
06. WOTW/POTP
07. Arabesque
08. When I Need A Friend
09. Sunrise/Sunset Interlude #1
10. Sunrise/Sunset Interlude #2
11. Sunrise/Sunset Interlude #3
12. Sunrise/Sunset Interlude #4
13. Sunrise/Sunset Interlude #5
14. Sunrise/Sunset Interlude #6

CD2 - Sunset:
15. Guns
16. Orphans
17. Eko
18. Cry Cry Cry
19. Old Friends
20. Bani Adam
21. Champion Of The World
22. Everyday Life

EAC-Log, CUE-Sheed & NFO:

Click to open spoiler
REM GENRE Indie Rock
REM DATE 2019-11-22
PERFORMER “Coldplay”
TITLE “Everyday Life”
FILE “01 Sunrise.flac” WAVE
TRACK 01 AUDIO
TITLE “Sunrise”
PERFORMER “Coldplay”
INDEX 01 00:00:00
FILE “02 Church.flac” WAVE
TRACK 02 AUDIO
TITLE “Church”
PERFORMER “Coldplay”
INDEX 01 00:00:00
FILE “03 Trouble In Town.flac” WAVE
TRACK 03 AUDIO
TITLE “Trouble In Town”
PERFORMER “Coldplay”
INDEX 01 00:00:00
FILE “04 BrokEn.flac” WAVE
TRACK 04 AUDIO
TITLE “BrokEn”
PERFORMER “Coldplay”
INDEX 01 00:00:00
FILE “05 Daddy.flac” WAVE
TRACK 05 AUDIO
TITLE “Daddy”
PERFORMER “Coldplay”
INDEX 01 00:00:00
FILE “06 WOTWPOTP.flac” WAVE
TRACK 06 AUDIO
TITLE “WOTW/POTP”
PERFORMER “Coldplay”
INDEX 01 00:00:00
FILE “07 Arabesque.flac” WAVE
TRACK 07 AUDIO
TITLE “Arabesque”
PERFORMER “Coldplay”
INDEX 01 00:00:00
FILE “08 When I Need A Friend.flac” WAVE
TRACK 08 AUDIO
TITLE “When I Need A Friend”
PERFORMER “Coldplay”
INDEX 01 00:00:00
FILE “09 SunriseSunset Interlude #1.flac” WAVE
TRACK 09 AUDIO
TITLE “Sunrise/Sunset Interlude #1”
PERFORMER “Coldplay”
INDEX 01 00:00:00
FILE “10 SunriseSunset Interlude #2.flac” WAVE
TRACK 10 AUDIO
TITLE “Sunrise/Sunset Interlude #2”
PERFORMER “Coldplay”
INDEX 01 00:00:00
FILE “11 SunriseSunset Interlude #3.flac” WAVE
TRACK 11 AUDIO
TITLE “Sunrise/Sunset Interlude #3”
PERFORMER “Coldplay”
INDEX 01 00:00:00
FILE “12 SunriseSunset Interlude #4.flac” WAVE
TRACK 12 AUDIO
TITLE “Sunrise/Sunset Interlude #4”
PERFORMER “Coldplay”
INDEX 01 00:00:00
FILE “13 SunriseSunset Interlude #5.flac” WAVE
TRACK 13 AUDIO
TITLE “Sunrise/Sunset Interlude #5”
PERFORMER “Coldplay”
INDEX 01 00:00:00
FILE “14 SunriseSunset Interlude #6.flac” WAVE
TRACK 14 AUDIO
TITLE “Sunrise/Sunset Interlude #6”
PERFORMER “Coldplay”
INDEX 01 00:00:00
FILE “15 Guns.flac” WAVE
TRACK 15 AUDIO
TITLE “Guns”
PERFORMER “Coldplay”
INDEX 01 00:00:00
FILE “16 Orphans.flac” WAVE
TRACK 16 AUDIO
TITLE “Orphans”
PERFORMER “Coldplay”
INDEX 01 00:00:00
FILE “17 Eko.flac” WAVE
TRACK 17 AUDIO
TITLE “Eko”
PERFORMER “Coldplay”
INDEX 01 00:00:00
FILE “18 Cry Cry Cry.flac” WAVE
TRACK 18 AUDIO
TITLE “Cry Cry Cry”
PERFORMER “Coldplay”
INDEX 01 00:00:00
FILE “19 Old Friends.flac” WAVE
TRACK 19 AUDIO
TITLE “Old Friends”
PERFORMER “Coldplay”
INDEX 01 00:00:00
FILE “20 Bani Adam.flac” WAVE
TRACK 20 AUDIO
TITLE “Bani Adam”
PERFORMER “Coldplay”
INDEX 01 00:00:00
FILE “21 Champion Of The World.flac” WAVE
TRACK 21 AUDIO
TITLE “Champion Of The World”
PERFORMER “Coldplay”
INDEX 01 00:00:00
FILE “22 Everyday Life.flac” WAVE
TRACK 22 AUDIO
TITLE “Everyday Life”
PERFORMER “Coldplay”
INDEX 01 00:00:00

Leave a Reply

Your email address will not be published. Required fields are marked *

This site uses Akismet to reduce spam. Learn how your comment data is processed.