Cock Sparrer – Two Monkeys 2009 (Remastered)




Artist: Cock Sparrer
Year: 1997/2009
Genre: Oi
Notes: Discogs
Add. Notes: Remastered
Cover incl.: Yes
Encoder: FLAC
Bitrate: ~900 kBit/s (44.1 kHz/16 Bit/s)
Log & Cue incl.: Yes
Size: 418,97 MB
Password: “slam” (without ” “)


All Downloads/Hosters are compatible

Download 1
Turbobit.net
Rapidgator.net
KatFile.com
UploadRar.com
Download 2
Turbobit.net
Rapidgator.net
KatFile.com
UploadRar.com

Tracklist:

1 - A.U - 3:52
2 - Before The Flame Dies - 3:05
3 - Tart - 2:58
4 - Lies? - 3:31
5 - East End Girl - 3:42
6 - Anthem - 4:21
7 - Time To Be Me - 3:43
8 - I Live In Marbella - 4:13
9 - Bats Out - 3:29
10 - Battersea Bardot - 3:22
11 - I Feel Death Coming On - 3:45
12 - Back Home - 2:01
13 - Goodbye - 3:29
Bonus Tracks
14 - Sunday Stripper (Live - Unreleased) - 4:25
15 - Secret Army (Live - Unreleased) - 2:09
16 - Where Are They Now? (Live - Unreleased) - 3:30
17 - Runnin Riot (Live - Unreleased) - 3:59

EAC-Log, CUE-Sheed & NFO:

Click to open spoiler
Exact Audio Copy V0.99 prebeta 4 from 23. January 2008

EAC extraction logfile from 5. May 2009, 5:47

Cock Sparrer / Two Monkeys 2009

Used drive : TSSTcorpCDDVDW SH-S223F Adapter: 4 ID: 0

Read mode : Secure
Utilize accurate stream : Yes
Defeat audio cache : Yes
Make use of C2 pointers : No

Read offset correction : 6
Overread into Lead-In and Lead-Out : No
Fill up missing offset samples with silence : Yes
Delete leading and trailing silent blocks : No
Null samples used in CRC calculations : No
Used interface : Native Win32 interface for Win NT & 2000
Gap handling : Appended to previous track

Used output format : Internal WAV Routines
Sample format : 44.100 Hz; 16 Bit; Stereo

TOC of the extracted CD

Track | Start | Length | Start sector | End sector
———————————————————
1 | 0:00.00 | 3:51.63 | 0 | 17387
2 | 3:51.63 | 3:05.32 | 17388 | 31294
3 | 6:57.20 | 2:57.45 | 31295 | 44614
4 | 9:54.65 | 3:31.03 | 44615 | 60442
5 | 13:25.68 | 3:42.00 | 60443 | 77092
6 | 17:07.68 | 4:20.46 | 77093 | 96638
7 | 21:28.39 | 3:43.09 | 96639 | 113372
8 | 25:11.48 | 4:12.58 | 113373 | 132330
9 | 29:24.31 | 3:28.44 | 132331 | 147974
10 | 32:53.00 | 3:21.63 | 147975 | 163112
11 | 36:14.63 | 3:44.60 | 163113 | 179972
12 | 39:59.48 | 2:01.07 | 179973 | 189054
13 | 42:00.55 | 3:29.00 | 189055 | 204729
14 | 45:29.55 | 4:24.41 | 204730 | 224570
15 | 49:54.21 | 2:08.68 | 224571 | 234238
16 | 52:03.14 | 3:29.56 | 234239 | 249969
17 | 55:32.70 | 3:58.71 | 249970 | 267890

Track 1

Filename C:\Cock Sparrer – Two Monkeys 2009\01 A.U.wav

Pre-gap length 0:00:02.00

Peak level 97.7 %
Track quality 100.0 %
Test CRC E7D2262C
Copy CRC E7D2262C
Copy OK

Track 2

Filename C:\Cock Sparrer – Two Monkeys 2009\02 Before The Flame Dies.wav

Peak level 97.7 %
Track quality 100.0 %
Test CRC D4E1710C
Copy CRC D4E1710C
Copy OK

Track 3

Filename C:\Cock Sparrer – Two Monkeys 2009\03 Tart.wav

Peak level 97.7 %
Track quality 100.0 %
Test CRC 5F13F84F
Copy CRC 5F13F84F
Copy OK

Track 4

Filename C:\Cock Sparrer – Two Monkeys 2009\04 Lies .wav

Peak level 97.7 %
Track quality 100.0 %
Test CRC 3978F92B
Copy CRC 3978F92B
Copy OK

Track 5

Filename C:\Cock Sparrer – Two Monkeys 2009\05 East End Girl.wav

Peak level 97.7 %
Track quality 100.0 %
Test CRC B4F13649
Copy CRC B4F13649
Copy OK

Track 6

Filename C:\Cock Sparrer – Two Monkeys 2009\06 Anthem.wav

Peak level 97.7 %
Track quality 100.0 %
Test CRC 8D21C2A1
Copy CRC 8D21C2A1
Copy OK

Track 7

Filename C:\Cock Sparrer – Two Monkeys 2009\07 Time To Be Me.wav

Peak level 97.7 %
Track quality 100.0 %
Test CRC 66A72D66
Copy CRC 66A72D66
Copy OK

Track 8

Filename C:\Cock Sparrer – Two Monkeys 2009\08 I Live In Marbella.wav

Peak level 97.7 %
Track quality 100.0 %
Test CRC 843453AF
Copy CRC 843453AF
Copy OK

Track 9

Filename C:\Cock Sparrer – Two Monkeys 2009\09 Bats Out.wav

Peak level 97.7 %
Track quality 100.0 %
Test CRC 2FECBEC7
Copy CRC 2FECBEC7
Copy OK

Track 10

Filename C:\Cock Sparrer – Two Monkeys 2009\10 Battersea Bardot.wav

Peak level 97.7 %
Track quality 100.0 %
Test CRC 92F17E93
Copy CRC 92F17E93
Copy OK

Track 11

Filename C:\Cock Sparrer – Two Monkeys 2009\11 I Feel A Death Coming On.wav

Peak level 97.7 %
Track quality 99.9 %
Test CRC 3139188C
Copy CRC 3139188C
Copy OK

Track 12

Filename C:\Cock Sparrer – Two Monkeys 2009\12 Back Home.wav

Peak level 97.7 %
Track quality 100.0 %
Test CRC B6B5AAE4
Copy CRC B6B5AAE4
Copy OK

Track 13

Filename C:\Cock Sparrer – Two Monkeys 2009\13 Goodbye.wav

Peak level 97.7 %
Track quality 100.0 %
Test CRC 3D3C055C
Copy CRC 3D3C055C
Copy OK

Track 14

Filename C:\Cock Sparrer – Two Monkeys 2009\14 Sunday Stripper (Live – Unreleased).wav

Peak level 97.7 %
Track quality 100.0 %
Test CRC 28AE0863
Copy CRC 28AE0863
Copy OK

Track 15

Filename C:\Cock Sparrer – Two Monkeys 2009\15 Secret Army (Live – Unreleased).wav

Peak level 97.7 %
Track quality 100.0 %
Test CRC EFAED9B4
Copy CRC EFAED9B4
Copy OK

Track 16

Filename C:\Cock Sparrer – Two Monkeys 2009\16 Where Are They Now (Live – Unreleased).wav

Peak level 97.7 %
Track quality 100.0 %
Test CRC D7E0BE3E
Copy CRC D7E0BE3E
Copy OK

Track 17

Filename C:\Cock Sparrer – Two Monkeys 2009\17 Runnin’ Riot (Live – Unreleased).wav

Peak level 97.7 %
Track quality 100.0 %
Test CRC 639EA213
Copy CRC 639EA213
Copy OK

No errors occurred

End of status report

REM GENRE Punk
REM DATE 2009
REM DISCID E80DF311
REM COMMENT “ExactAudioCopy v0.99pb4”
PERFORMER “Cock Sparrer”
TITLE “Two Monkeys 2009”
FILE “01 A.U.flac” WAVE
TRACK 01 AUDIO
TITLE “A.U”
PERFORMER “Cock Sparrer”
INDEX 01 00:00:00
FILE “02 Before The Flame Dies.flac” WAVE
TRACK 02 AUDIO
TITLE “Before The Flame Dies”
PERFORMER “Cock Sparrer”
INDEX 01 00:00:00
FILE “03 Tart.flac” WAVE
TRACK 03 AUDIO
TITLE “Tart”
PERFORMER “Cock Sparrer”
INDEX 01 00:00:00
FILE “04 Lies .flac” WAVE
TRACK 04 AUDIO
TITLE “Lies?”
PERFORMER “Cock Sparrer”
INDEX 01 00:00:00
FILE “05 East End Girl.flac” WAVE
TRACK 05 AUDIO
TITLE “East End Girl”
PERFORMER “Cock Sparrer”
INDEX 01 00:00:00
FILE “06 Anthem.flac” WAVE
TRACK 06 AUDIO
TITLE “Anthem”
PERFORMER “Cock Sparrer”
INDEX 01 00:00:00
FILE “07 Time To Be Me.flac” WAVE
TRACK 07 AUDIO
TITLE “Time To Be Me”
PERFORMER “Cock Sparrer”
INDEX 01 00:00:00
FILE “08 I Live In Marbella.flac” WAVE
TRACK 08 AUDIO
TITLE “I Live In Marbella”
PERFORMER “Cock Sparrer”
INDEX 01 00:00:00
FILE “09 Bats Out.flac” WAVE
TRACK 09 AUDIO
TITLE “Bats Out”
PERFORMER “Cock Sparrer”
INDEX 01 00:00:00
FILE “10 Battersea Bardot.flac” WAVE
TRACK 10 AUDIO
TITLE “Battersea Bardot”
PERFORMER “Cock Sparrer”
INDEX 01 00:00:00
FILE “11 I Feel A Death Coming On.flac” WAVE
TRACK 11 AUDIO
TITLE “I Feel A Death Coming On”
PERFORMER “Cock Sparrer”
INDEX 01 00:00:00
FILE “12 Back Home.flac” WAVE
TRACK 12 AUDIO
TITLE “Back Home”
PERFORMER “Cock Sparrer”
INDEX 01 00:00:00
FILE “13 Goodbye.flac” WAVE
TRACK 13 AUDIO
TITLE “Goodbye”
PERFORMER “Cock Sparrer”
INDEX 01 00:00:00
FILE “14 Sunday Stripper (Live – Unreleased).flac” WAVE
TRACK 14 AUDIO
TITLE “Sunday Stripper (Live – Unreleased)”
PERFORMER “Cock Sparrer”
INDEX 01 00:00:00
FILE “15 Secret Army (Live – Unreleased).flac” WAVE
TRACK 15 AUDIO
TITLE “Secret Army (Live – Unreleased)”
PERFORMER “Cock Sparrer”
INDEX 01 00:00:00
FILE “16 Where Are They Now (Live – Unreleased).flac” WAVE
TRACK 16 AUDIO
TITLE “Where Are They Now? (Live – Unreleased)”
PERFORMER “Cock Sparrer”
INDEX 01 00:00:00
FILE “17 Runnin’ Riot (Live – Unreleased).flac” WAVE
TRACK 17 AUDIO
TITLE “Runnin’ Riot (Live – Unreleased)”
PERFORMER “Cock Sparrer”
INDEX 01 00:00:00


Leave a Reply

Your email address will not be published. Required fields are marked *

This site uses Akismet to reduce spam. Learn how your comment data is processed.