Cock Sparrer – The Decca Years




Artist: Cock Sparrer
Year: 2006
Genre: Oi
Notes: Discogs
Add. Notes:
Cover incl.: Yes
Encoder: FLAC
Bitrate: ~900 kBit/s (44.1 kHz/16 Bit/s)
Log & Cue incl.: Yes
Size: 355,34 MB
Password: “slam” (without ” “)


All Downloads/Hosters are compatible

Download 1
Turbobit.net
Rapidgator.net
KatFile.com
UploadRar.com
Download 2
Turbobit.net
Rapidgator.net
KatFile.com
UploadRar.com
Download 3
Turbobit.net
Rapidgator.net
KatFile.com
UploadRar.com

Tracklist:

1 - We Love You - 3:52
2 - Sister Suzie - 3:38
3 - Platinum Blonde - 3:08
4 - Taken For A Ride - 2:03
5 - Again And Again - 2:41
6 - Runnin' Riot - 3:12
7 - Chip On My Shoulder - 2:03
8 - Watcha Gonna Do About It - 3:07
9 - Teenage Heart - 2:23
10 - I Need A Witness - 3:40
11 - Sunday Stripper - 3:38
12 - Trouble On The Terraces - 4:10
13 - What's It Like To Be Old - 3:15
14 - Run For Cover - 3:15
15 - What's It Like To Be Old (Version 2) - 3:14

EAC-Log, CUE-Sheed & NFO:

Click to open spoiler
Exact Audio Copy V0.99 prebeta 5 from 4. May 2009

Отчёт EAC об извлечении, выполненном 11. декабря 2010, 14:45

Cock Sparrer / The Decca Years

Дисковод: TEAC DW-552G Adapter: 0 ID: 0

Режим чтения : Достоверность
Использование точного потока : Да
Отключение кэша аудио : Да
Использование указателей C2 : Нет

Коррекция смещения при чтении : 6
Способность читать области Lead-in и Lead-out : Нет
Заполнение пропущенных сэмплов тишиной : Да
Удаление блоков с тишиной в начале и конце : Нет
При вычислениях CRC использовались нулевые сэмплы : Да
Интерфейс : Встроенный Win32-интерфейс для Win NT/2000
Обработка зазоров : Добавлено к предыдущему треку

Выходной формат : Пользовательский кодировщик
Выбранный битрейт : 128 kBit/s
Качество : Высокий
Добавление ID3-тэга : Нет
Утилита сжатия : C:\Program Files\Exact Audio Copy\FLAC\FLAC.EXE
Дополнительные параметры : -8 -V -T “ARTIST=%a” -T “TITLE=%t” -T “ALBUM=%g” -T “DATE=%y” -T “TRACKNUMBER=%n” -T “GENRE=%m” -T “COMMENT=EAC FLAC -8” %s

TOC извлечённого CD

Трек | Старт | Длительность | Начальный сектор | Конечный сектор
———————————————————————
1 | 0:00.00 | 3:52.71 | 0 | 17470
2 | 3:52.71 | 3:38.56 | 17471 | 33876
3 | 7:31.52 | 3:08.59 | 33877 | 48035
4 | 10:40.36 | 2:03.09 | 48036 | 57269
5 | 12:43.45 | 2:41.65 | 57270 | 69409
6 | 15:25.35 | 3:12.40 | 69410 | 83849
7 | 18:38.00 | 2:03.54 | 83850 | 93128
8 | 20:41.54 | 3:07.41 | 93129 | 107194
9 | 23:49.20 | 2:23.02 | 107195 | 117921
10 | 26:12.22 | 3:40.40 | 117922 | 134461
11 | 29:52.62 | 3:40.38 | 134462 | 150999
12 | 33:33.25 | 4:10.29 | 151000 | 169778
13 | 37:43.54 | 3:15.38 | 169779 | 184441
14 | 40:59.17 | 3:15.34 | 184442 | 199100
15 | 44:14.51 | 3:16.01 | 199101 | 213801

Трек 1

Имя файла D:\EAC\Cock Sparrer – 2006 – The Decca Years\01 We Love You.wav

Длина предзазора 0:00:02.00

Пиковый уровень 97.7 %
Качество трека 99.9 %
CRC теста EBB2F17F
CRC копии EBB2F17F
Точное извлечение (достоверность 1) [21D64A50]
Копирование… OK

Трек 2

Имя файла D:\EAC\Cock Sparrer – 2006 – The Decca Years\02 Sister Suzie.wav

Пиковый уровень 97.7 %
Качество трека 99.9 %
CRC теста DB73928F
CRC копии DB73928F
Точное извлечение (достоверность 1) [0DB29767]
Копирование… OK

Трек 3

Имя файла D:\EAC\Cock Sparrer – 2006 – The Decca Years\03 Platinum Blonde.wav

Пиковый уровень 97.7 %
Качество трека 100.0 %
CRC теста C0400D73
CRC копии C0400D73
Точное извлечение (достоверность 1) [0CA54BE9]
Копирование… OK

Трек 4

Имя файла D:\EAC\Cock Sparrer – 2006 – The Decca Years\04 Taken For A Ride.wav

Пиковый уровень 97.7 %
Качество трека 100.0 %
CRC теста 5F6CEC3E
CRC копии 5F6CEC3E
Точное извлечение (достоверность 1) [A1351A64]
Копирование… OK

Трек 5

Имя файла D:\EAC\Cock Sparrer – 2006 – The Decca Years\05 Again And Again.wav

Пиковый уровень 97.7 %
Качество трека 99.9 %
CRC теста 076E71BD
CRC копии 076E71BD
Точное извлечение (достоверность 1) [CF551290]
Копирование… OK

Трек 6

Имя файла D:\EAC\Cock Sparrer – 2006 – The Decca Years\06 Runnin’ Riot.wav

Пиковый уровень 97.7 %
Качество трека 99.8 %
CRC теста CDAF386D
CRC копии CDAF386D
Точное извлечение (достоверность 1) [A4E23FAF]
Копирование… OK

Трек 7

Имя файла D:\EAC\Cock Sparrer – 2006 – The Decca Years\07 Chip On My Shoulder.wav

Пиковый уровень 97.7 %
Качество трека 99.9 %
CRC теста 497AEDC6
CRC копии 497AEDC6
Точное извлечение (достоверность 1) [FB44951E]
Копирование… OK

Трек 8

Имя файла D:\EAC\Cock Sparrer – 2006 – The Decca Years\08 Watcha Gonna Do About It.wav

Пиковый уровень 97.7 %
Качество трека 99.8 %
CRC теста 10B84D73
CRC копии 10B84D73
Точное извлечение (достоверность 1) [7925098E]
Копирование… OK

Трек 9

Имя файла D:\EAC\Cock Sparrer – 2006 – The Decca Years\09 Teenage Heart.wav

Пиковый уровень 97.7 %
Качество трека 99.9 %
CRC теста 5260EA92
CRC копии 5260EA92
Точное извлечение (достоверность 1) [C09A73EF]
Копирование… OK

Трек 10

Имя файла D:\EAC\Cock Sparrer – 2006 – The Decca Years\10 I Need A Witness.wav

Пиковый уровень 97.7 %
Качество трека 99.9 %
CRC теста 6A6F9C94
CRC копии 6A6F9C94
Точное извлечение (достоверность 1) [1A69896C]
Копирование… OK

Трек 11

Имя файла D:\EAC\Cock Sparrer – 2006 – The Decca Years\11 Sunday Stripper.wav

Пиковый уровень 97.7 %
Качество трека 99.9 %
CRC теста C2164097
CRC копии C2164097
Точное извлечение (достоверность 1) [663DC403]
Копирование… OK

Трек 12

Имя файла D:\EAC\Cock Sparrer – 2006 – The Decca Years\12 Trouble On The Terraces.wav

Пиковый уровень 97.7 %
Качество трека 99.9 %
CRC теста EEB7A6AE
CRC копии EEB7A6AE
Точное извлечение (достоверность 1) [368EF88F]
Копирование… OK

Трек 13

Имя файла D:\EAC\Cock Sparrer – 2006 – The Decca Years\13 What’s It Like To Be Old.wav

Пиковый уровень 97.7 %
Качество трека 100.0 %
CRC теста DD38F445
CRC копии DD38F445
Точное извлечение (достоверность 1) [271EB608]
Копирование… OK

Трек 14

Имя файла D:\EAC\Cock Sparrer – 2006 – The Decca Years\14 Run For Cover.wav

Пиковый уровень 97.7 %
Качество трека 100.0 %
CRC теста E56743DC
CRC копии E56743DC
Точное извлечение (достоверность 1) [5966678F]
Копирование… OK

Трек 15

Имя файла D:\EAC\Cock Sparrer – 2006 – The Decca Years\15 What’s It Like To Be Old (version 2).wav

Пиковый уровень 97.7 %
Качество трека 99.8 %
CRC теста 815FB7F4
CRC копии 815FB7F4
Точное извлечение (достоверность 1) [0E7C9279]
Копирование… OK

Все треки извлечены точно

Ошибок не произошло

Конец отчёта

REM GENRE Punk/Oi!
REM DATE 2006
REM DISCID BB0B220F
REM COMMENT “ExactAudioCopy v0.99pb5”
PERFORMER “Cock Sparrer”
TITLE “The Decca Years”
FILE “01 We Love You.wav” WAVE
TRACK 01 AUDIO
TITLE “We Love You”
PERFORMER “Cock Sparrer”
INDEX 01 00:00:00
FILE “02 Sister Suzie.wav” WAVE
TRACK 02 AUDIO
TITLE “Sister Suzie”
PERFORMER “Cock Sparrer”
INDEX 01 00:00:00
FILE “03 Platinum Blonde.wav” WAVE
TRACK 03 AUDIO
TITLE “Platinum Blonde”
PERFORMER “Cock Sparrer”
INDEX 01 00:00:00
FILE “04 Taken For A Ride.wav” WAVE
TRACK 04 AUDIO
TITLE “Taken For A Ride”
PERFORMER “Cock Sparrer”
INDEX 01 00:00:00
FILE “05 Again And Again.wav” WAVE
TRACK 05 AUDIO
TITLE “Again And Again”
PERFORMER “Cock Sparrer”
INDEX 01 00:00:00
FILE “06 Runnin’ Riot.wav” WAVE
TRACK 06 AUDIO
TITLE “Runnin’ Riot”
PERFORMER “Cock Sparrer”
INDEX 01 00:00:00
FILE “07 Chip On My Shoulder.wav” WAVE
TRACK 07 AUDIO
TITLE “Chip On My Shoulder”
PERFORMER “Cock Sparrer”
INDEX 01 00:00:00
FILE “08 Watcha Gonna Do About It.wav” WAVE
TRACK 08 AUDIO
TITLE “Watcha Gonna Do About It”
PERFORMER “Cock Sparrer”
INDEX 01 00:00:00
FILE “09 Teenage Heart.wav” WAVE
TRACK 09 AUDIO
TITLE “Teenage Heart”
PERFORMER “Cock Sparrer”
INDEX 01 00:00:00
FILE “10 I Need A Witness.wav” WAVE
TRACK 10 AUDIO
TITLE “I Need A Witness”
PERFORMER “Cock Sparrer”
INDEX 01 00:00:00
FILE “11 Sunday Stripper.wav” WAVE
TRACK 11 AUDIO
TITLE “Sunday Stripper”
PERFORMER “Cock Sparrer”
INDEX 01 00:00:00
FILE “12 Trouble On The Terraces.wav” WAVE
TRACK 12 AUDIO
TITLE “Trouble On The Terraces”
PERFORMER “Cock Sparrer”
INDEX 01 00:00:00
FILE “13 What’s It Like To Be Old.wav” WAVE
TRACK 13 AUDIO
TITLE “What’s It Like To Be Old”
PERFORMER “Cock Sparrer”
INDEX 01 00:00:00
FILE “14 Run For Cover.wav” WAVE
TRACK 14 AUDIO
TITLE “Run For Cover”
PERFORMER “Cock Sparrer”
INDEX 01 00:00:00
FILE “15 What’s It Like To Be Old (version 2).wav” WAVE
TRACK 15 AUDIO
TITLE “What’s It Like To Be Old (version 2)”
PERFORMER “Cock Sparrer”
INDEX 01 00:00:00


Leave a Reply

Your email address will not be published. Required fields are marked *

This site uses Akismet to reduce spam. Learn how your comment data is processed.