Cock Sparrer – Shock Troops




Artist: Cock Sparrer
Year: 1983/1993
Genre: Oi
Notes: Discogs
Add. Notes:
Cover incl.: Yes
Encoder: FLAC
Bitrate: ~900 kBit/s (44.1 kHz/16 Bit/s)
Log & Cue incl.: Yes
Size: 339,52 MB
Password: “slam” (without ” “)


All Downloads/Hosters are compatible

Download 1
Turbobit.net
Rapidgator.net
KatFile.com
UploadRar.com
Download 2
Turbobit.net
Rapidgator.net
KatFile.com
UploadRar.com

Tracklist:

1 - Where Are They Now - 2:56
2 - Riot Squad - 2:43
3 - Working - 2:44
4 - Take 'Em All - 2:31
5 - We're Coming Back - 3:20
6 - England Belongs To Me - 3:01
7 - Watch Your Back - 2:18
8 - I Got Your Number - 2:46
9 - Secret Army - 1:54
10 - Droogs Don't Run - 2:53
11 - Out On An Island - 4:37
12 - Argy Bargy - 2:33
13 - Colonel Bogey - 2:51

EAC-Log, CUE-Sheed & NFO:

Click to open spoiler
Отчёт EAC об извлечении, выполненном 19. ноября 2008, 21:48 для диска:
Cock Sparrer / Shock Troops

Дисковод: Optiarc DVD RW AD-7203S Adapter: 2 ID: 0
Режим чтения: Достоверный (C2: нет, Точный поток: да, Отключение кэша: да)
Коррекция смещения при чтении: 48
Способность читать области Lead-in и Lead-out : Нет

Выходной формат: Внутренние WAV-операции
44.100 Гц; 16 бит; стерео

Другие параметры:
Заполнение пропущенных сэмплов тишиной : Да
Удаление блоков с тишиной в начале и конце : Нет
Встроенный Win32-интерфейс для Win NT/2000

Характеристики диапазона извлечения и сообщения об ошибках
Выбранный диапазон
Имя файла D:\Z-WORKS\Cock Sparrer – Shock Troops.wav

Пиковый уровень 97.2 %
Качество диапазона 100.0 %
CRC 5C63A06A
Копирование… OK

Ошибок не произошло

Конец отчёта

REM DISCID F20C8712
REM COMMENT “ExactAudioCopy v0.95b4”
PERFORMER “Cock Sparrer”
TITLE “Shock Troops”
FILE “Cock Sparrer – Shock Troops.flac” WAVE
TRACK 01 AUDIO
TITLE “Where Are They Now”
PERFORMER “Cock Sparrer”
FLAGS DCP
INDEX 01 00:00:00
TRACK 02 AUDIO
TITLE “Riot Squad”
PERFORMER “Cock Sparrer”
FLAGS DCP
INDEX 01 02:58:56
TRACK 03 AUDIO
TITLE “Working”
PERFORMER “Cock Sparrer”
FLAGS DCP
INDEX 00 05:42:59
INDEX 01 05:42:67
TRACK 04 AUDIO
TITLE “Take ’em All”
PERFORMER “Cock Sparrer”
FLAGS DCP
INDEX 01 08:29:08
TRACK 05 AUDIO
TITLE “We’re Coming Back”
PERFORMER “Cock Sparrer”
FLAGS DCP
INDEX 00 11:02:19
INDEX 01 11:02:39
TRACK 06 AUDIO
TITLE “England Belongs To Me”
PERFORMER “Cock Sparrer”
FLAGS DCP
INDEX 01 14:26:02
TRACK 07 AUDIO
TITLE “Watch Your Back”
PERFORMER “Cock Sparrer”
FLAGS DCP
INDEX 00 17:29:58
INDEX 01 17:30:03
TRACK 08 AUDIO
TITLE “I Got Your Number”
PERFORMER “Cock Sparrer”
FLAGS DCP
INDEX 01 19:50:41
TRACK 09 AUDIO
TITLE “Secret Army”
PERFORMER “Cock Sparrer”
FLAGS DCP
INDEX 00 22:38:44
INDEX 01 22:38:64
TRACK 10 AUDIO
TITLE “Droogs Don’t Run”
PERFORMER “Cock Sparrer”
FLAGS DCP
INDEX 01 24:34:23
TRACK 11 AUDIO
TITLE “Out On an Island”
PERFORMER “Cock Sparrer”
FLAGS DCP
INDEX 01 27:29:16
TRACK 12 AUDIO
TITLE “Argy Bargy”
PERFORMER “Cock Sparrer”
FLAGS DCP
INDEX 01 32:07:31
TRACK 13 AUDIO
TITLE “Colonel Bogey”
PERFORMER “Cock Sparrer”
FLAGS DCP
INDEX 00 34:43:25
INDEX 01 34:43:31
TRACK 14 AUDIO
TITLE “I Need a Witness”
PERFORMER “Cock Sparrer”
FLAGS DCP
INDEX 00 37:36:38
INDEX 01 37:36:42
TRACK 15 AUDIO
TITLE “Platinum Blonde”
PERFORMER “Cock Sparrer”
FLAGS DCP
INDEX 00 41:21:46
INDEX 01 41:21:51
TRACK 16 AUDIO
TITLE “What’s It Like To Be Old”
PERFORMER “Cock Sparrer”
FLAGS DCP
INDEX 00 44:33:20
INDEX 01 44:33:27
TRACK 17 AUDIO
TITLE “Teenage Heart”
PERFORMER “Cock Sparrer”
FLAGS DCP
INDEX 00 47:48:47
INDEX 01 47:48:55
TRACK 18 AUDIO
TITLE “Run For Cover”
PERFORMER “Cock Sparrer”
FLAGS DCP
INDEX 00 50:10:34
INDEX 01 50:10:37


Leave a Reply

Your email address will not be published. Required fields are marked *

This site uses Akismet to reduce spam. Learn how your comment data is processed.