Cock Sparrer – Run Away




Artist: Cock Sparrer
Year: 1995
Genre: Oi
Notes: Discogs
Add. Notes:
Cover incl.: Yes
Encoder: FLAC
Bitrate: ~900 kBit/s (44.1 kHz/16 Bit/s)
Log & Cue incl.: Yes
Size: 180,04 MB
Password: “slam” (without ” “)


All Downloads/Hosters are compatible

Download 1
Turbobit.net
Rapidgator.net
UploadEver.com
KatFile.com
UsersDrive.com
Download 2
Turbobit.net
Rapidgator.net
UploadEver.com
KatFile.com
UsersDrive.com
Download 3
Turbobit.net
Rapidgator.net
UploadEver.com
KatFile.com
UsersDrive.com

Tracklist:

1. Run Away Johnny 
2. Why Can't You See 
3. Sunday Stripper (New Version) 
4. Secret Army (Live Berlin 27.2.94) 
5. Because You're Young (Live Berlin 27.2.94) 
6. Chip On Your Shoulder (Live Leipzig 28.2.94) 
7. We're Coming Back (Live Milano 10.3.94)

EAC-Log, CUE-Sheed & NFO:

Click to open spoiler
Exact Audio Copy V1.0 beta 3 from 29. August 2011

EAC extraction logfile from 15. April 2015, 14:09

COCK SPARRER / Run Away

Used drive : Optiarc DVD RW AD-7173A Adapter: 0 ID: 0

Read mode : Secure
Utilize accurate stream : Yes
Defeat audio cache : Yes
Make use of C2 pointers : No

Read offset correction : 48
Overread into Lead-In and Lead-Out : No
Fill up missing offset samples with silence : Yes
Delete leading and trailing silent blocks : No
Null samples used in CRC calculations : Yes
Used interface : Native Win32 interface for Win NT & 2000

Used output format : User Defined Encoder
Selected bitrate : 128 kBit/s
Quality : High
Add ID3 tag : No
Command line compressor : H:\Program Files\Exact Audio Copy\Flac\flac.exe
Additional command line options : -V -8 -T “Date=%year%” -T “Genre=%genre%” %source%

TOC of the extracted CD

Track | Start | Length | Start sector | End sector
———————————————————
1 | 0:00.00 | 3:25.62 | 0 | 15436
2 | 3:25.62 | 3:12.23 | 15437 | 29859
3 | 6:38.10 | 3:25.32 | 29860 | 45266
4 | 10:03.42 | 1:59.73 | 45267 | 54264
5 | 12:03.40 | 3:34.65 | 54265 | 70379
6 | 15:38.30 | 2:16.02 | 70380 | 80581
7 | 17:54.32 | 3:28.68 | 80582 | 96249

Range status and errors

Selected range

Filename I:\загрузки\COCK SPARRER (UK) 1995 Run Away [Bitzcore – Bitzcore 1697]\COCK SPARRER – Run Away.wav

Peak level 100.0 %
Extraction speed 1.6 X
Range quality 100.0 %
Test CRC 5380D069
Copy CRC 5380D069
Copy OK

No errors occurred

AccurateRip summary

Track 1 accurately ripped (confidence 1) [1088D184] (AR v2)
Track 2 accurately ripped (confidence 1) [69A39C12] (AR v2)
Track 3 accurately ripped (confidence 1) [56A3FE74] (AR v2)
Track 4 accurately ripped (confidence 1) [139D0D7F] (AR v2)
Track 5 accurately ripped (confidence 1) [8C58BF6B] (AR v2)
Track 6 accurately ripped (confidence 1) [E2B06CB0] (AR v2)
Track 7 accurately ripped (confidence 1) [76A8DFE8] (AR v2)

All tracks accurately ripped

End of status report

==== Log checksum E6D952272E2E08410BEBC5EA3C6208392713A6FBDDEE9D8BAA99514B50600E3F ====

REM GENRE ” ”
REM DATE 1995
REM DISCID 43050307
REM COMMENT “ExactAudioCopy v1.0b3”
PERFORMER “COCK SPARRER”
TITLE “Run Away”
FILE “COCK SPARRER – Run Away.FLAC” WAVE
TRACK 01 AUDIO
TITLE “Run Away Johnny”
PERFORMER “COCK SPARRER”
INDEX 01 00:00:00
TRACK 02 AUDIO
TITLE “Why Can’t You See?”
PERFORMER “COCK SPARRER”
INDEX 01 03:25:62
TRACK 03 AUDIO
TITLE “Sunday Stripper”
PERFORMER “COCK SPARRER”
INDEX 01 06:38:10
TRACK 04 AUDIO
TITLE “Secret Army”
PERFORMER “COCK SPARRER”
INDEX 01 10:03:42
TRACK 05 AUDIO
TITLE “Because You’re Young”
PERFORMER “COCK SPARRER”
INDEX 01 12:03:40
TRACK 06 AUDIO
TITLE “Chip On Your Shoulder”
PERFORMER “COCK SPARRER”
INDEX 01 15:38:30
TRACK 07 AUDIO
TITLE “We’re Coming Back”
PERFORMER “COCK SPARRER”
INDEX 01 17:54:32


Leave a Reply

Your email address will not be published. Required fields are marked *

This site uses Akismet to reduce spam. Learn how your comment data is processed.