Cock Sparrer – Here We Stand




Artist: Cock Sparrer
Year: 2007
Genre: Oi
Notes: Discogs
Add. Notes:
Cover incl.: Yes
Encoder: FLAC
Bitrate: ~1100 kBit/s (44.1 kHz/16 Bit/s)
Log & Cue incl.: Yes
Size: 352,1 MB
Password: “slam” (without ” “)


All Downloads/Hosters are compatible

Download 1
Turbobit.net
Rapidgator.net
KatFile.com
UploadRar.com
Download 2
Turbobit.net
Rapidgator.net
KatFile.com
UploadRar.com
Download 3
Turbobit.net
Rapidgator.net
KatFile.com
UploadRar.com

Tracklist:

1 - Too Late - 3:01
2 - Gotta Get Out - 3:32
3 - Did You Have A Nice Life Without Me? - 3:01
4 - True To Yourself - 3:28
5 - Time To Make Your Move - 2:37
6 - Will You? - 3:30
7 - Better Than This - 3:30
8 - Don't Stop - 3:38
9 - Spirit Of '76 - 3:55
10 - So Many Things - 3:26
11 - Last Orders - 2:27
12 - Despite All This - 3:02
13 - Sussed - 3:08
14 - Suicide Girls - 3:02

EAC-Log, CUE-Sheed & NFO:

Click to open spoiler
Exact Audio Copy V0.99 prebeta 5 from 4. May 2009

EAC extraction logfile from 16. October 2009, 5:10

Cock Sparrer / Here we stand

Used drive : TSSTcorpCDDVDW SH-S223F Adapter: 0 ID: 1

Read mode : Secure
Utilize accurate stream : Yes
Defeat audio cache : Yes
Make use of C2 pointers : No

Read offset correction : 6
Overread into Lead-In and Lead-Out : No
Fill up missing offset samples with silence : Yes
Delete leading and trailing silent blocks : No
Null samples used in CRC calculations : No
Used interface : Native Win32 interface for Win NT & 2000
Gap handling : Appended to previous track

Used output format : User Defined Encoder
Selected bitrate : 768 kBit/s
Quality : High
Add ID3 tag : No
Command line compressor : C:\Program Files\Exact Audio Copy\FLAC\FLAC.EXE
Additional command line options : -6 -V -T “ARTIST=%a” -T “TITLE=%t” -T “ALBUM=%g” -T “DATE=%y” -T “TRACKNUMBER=%n” -T “GENRE=%m” -T “COMMENT=%e” %s -o %d

TOC of the extracted CD

Track | Start | Length | Start sector | End sector
———————————————————
1 | 0:00.00 | 3:01.56 | 0 | 13630
2 | 3:01.56 | 3:33.64 | 13631 | 29669
3 | 6:35.45 | 3:01.26 | 29670 | 43270
4 | 9:36.71 | 3:28.68 | 43271 | 58938
5 | 13:05.64 | 2:37.46 | 58939 | 70759
6 | 15:43.35 | 3:30.42 | 70760 | 86551
7 | 19:14.02 | 3:31.48 | 86552 | 102424
8 | 22:45.50 | 3:39.62 | 102425 | 118911
9 | 26:25.37 | 3:55.30 | 118912 | 136566
10 | 30:20.67 | 3:27.50 | 136567 | 152141
11 | 33:48.42 | 2:27.40 | 152142 | 163206
12 | 36:16.07 | 3:02.56 | 163207 | 176912
13 | 39:18.63 | 3:08.28 | 176913 | 191040
14 | 42:27.16 | 3:02.64 | 191041 | 204754

Track 1

Filename C:\Documents and Settings\Owner\Desktop\what.cd\01. Too Late.wav

Pre-gap length 0:00:02.00

Peak level 97.7 %
Track quality 100.0 %
Test CRC 2005A3CB
Copy CRC 2005A3CB
Accurately ripped (confidence 1) [607EA9A0]
Copy OK

Track 2

Filename C:\Documents and Settings\Owner\Desktop\what.cd\02. Gotta get you.wav

Peak level 97.7 %
Track quality 99.9 %
Test CRC 02740061
Copy CRC 02740061
Accurately ripped (confidence 1) [FA5734AD]
Copy OK

Track 3

Filename C:\Documents and Settings\Owner\Desktop\what.cd\03. Did you have a nice life without me .wav

Peak level 97.7 %
Track quality 100.0 %
Test CRC 92C21D25
Copy CRC 92C21D25
Accurately ripped (confidence 1) [00E19E8D]
Copy OK

Track 4

Filename C:\Documents and Settings\Owner\Desktop\what.cd\04. True to yourself.wav

Peak level 97.7 %
Track quality 100.0 %
Test CRC 1911E747
Copy CRC 1911E747
Accurately ripped (confidence 1) [164AD780]
Copy OK

Track 5

Filename C:\Documents and Settings\Owner\Desktop\what.cd\05. Time to make your move.wav

Peak level 97.7 %
Track quality 100.0 %
Test CRC BEEB62BE
Copy CRC BEEB62BE
Accurately ripped (confidence 1) [9C2E1285]
Copy OK

Track 6

Filename C:\Documents and Settings\Owner\Desktop\what.cd\06. Will you .wav

Peak level 97.7 %
Track quality 100.0 %
Test CRC 6AAD7B08
Copy CRC 6AAD7B08
Accurately ripped (confidence 1) [3ADE86E2]
Copy OK

Track 7

Filename C:\Documents and Settings\Owner\Desktop\what.cd\07. Better than this.wav

Peak level 97.7 %
Track quality 100.0 %
Test CRC 2C87EA95
Copy CRC 2C87EA95
Accurately ripped (confidence 1) [FF824240]
Copy OK

Track 8

Filename C:\Documents and Settings\Owner\Desktop\what.cd\08. Dont´t Stop.wav

Peak level 97.7 %
Track quality 99.9 %
Test CRC C755AEB0
Copy CRC C755AEB0
Accurately ripped (confidence 1) [343469D6]
Copy OK

Track 9

Filename C:\Documents and Settings\Owner\Desktop\what.cd\09. Spirit of ´76.wav

Peak level 97.7 %
Track quality 100.0 %
Test CRC D52E6FDE
Copy CRC D52E6FDE
Accurately ripped (confidence 1) [F8738187]
Copy OK

Track 10

Filename C:\Documents and Settings\Owner\Desktop\what.cd\10. So many things.wav

Peak level 97.7 %
Track quality 100.0 %
Test CRC FAE5C2EE
Copy CRC FAE5C2EE
Accurately ripped (confidence 1) [020FC027]
Copy OK

Track 11

Filename C:\Documents and Settings\Owner\Desktop\what.cd\11. Last orders.wav

Peak level 97.7 %
Track quality 100.0 %
Test CRC D197D040
Copy CRC D197D040
Accurately ripped (confidence 1) [9DF0958A]
Copy OK

Track 12

Filename C:\Documents and Settings\Owner\Desktop\what.cd\12. Despite all this.wav

Peak level 97.7 %
Track quality 100.0 %
Test CRC B2DB24D0
Copy CRC B2DB24D0
Accurately ripped (confidence 1) [D4D77DEB]
Copy OK

Track 13

Filename C:\Documents and Settings\Owner\Desktop\what.cd\13. Sussed.wav

Peak level 97.7 %
Track quality 100.0 %
Test CRC 5845364C
Copy CRC 5845364C
Accurately ripped (confidence 1) [BB9E28A3]
Copy OK

Track 14

Filename C:\Documents and Settings\Owner\Desktop\what.cd\14. Suicide Girls.wav

Peak level 97.7 %
Track quality 100.0 %
Test CRC 1FAB376C
Copy CRC 1FAB376C
Accurately ripped (confidence 1) [63404E81]
Copy OK

All tracks accurately ripped

No errors occurred

End of status report

REM GENRE “Punk Rock”
REM DATE 2007
REM DISCID D30AAA0E
REM COMMENT “ExactAudioCopy v0.99pb5”
PERFORMER “Cock Sparrer”
TITLE “Here we stand”
FILE “01. Too Late.wav” WAVE
TRACK 01 AUDIO
TITLE “Too Late”
PERFORMER “Cock Sparrer”
INDEX 01 00:00:00
FILE “02. Gotta get you.wav” WAVE
TRACK 02 AUDIO
TITLE “Gotta get you”
PERFORMER “Cock Sparrer”
INDEX 01 00:00:00
FILE “03. Did you have a nice life without me .wav” WAVE
TRACK 03 AUDIO
TITLE “Did you have a nice life without me?”
PERFORMER “Cock Sparrer”
INDEX 01 00:00:00
FILE “04. True to yourself.wav” WAVE
TRACK 04 AUDIO
TITLE “True to yourself”
PERFORMER “Cock Sparrer”
INDEX 01 00:00:00
FILE “05. Time to make your move.wav” WAVE
TRACK 05 AUDIO
TITLE “Time to make your move”
PERFORMER “Cock Sparrer”
INDEX 01 00:00:00
FILE “06. Will you .wav” WAVE
TRACK 06 AUDIO
TITLE “Will you?”
PERFORMER “Cock Sparrer”
INDEX 01 00:00:00
FILE “07. Better than this.wav” WAVE
TRACK 07 AUDIO
TITLE “Better than this”
PERFORMER “Cock Sparrer”
INDEX 01 00:00:00
FILE “08. Dont´t Stop.wav” WAVE
TRACK 08 AUDIO
TITLE “Dont´t Stop”
PERFORMER “Cock Sparrer”
INDEX 01 00:00:00
FILE “09. Spirit of ´76.wav” WAVE
TRACK 09 AUDIO
TITLE “Spirit of ´76”
PERFORMER “Cock Sparrer”
INDEX 01 00:00:00
FILE “10. So many things.wav” WAVE
TRACK 10 AUDIO
TITLE “So many things”
PERFORMER “Cock Sparrer”
INDEX 01 00:00:00
FILE “11. Last orders.wav” WAVE
TRACK 11 AUDIO
TITLE “Last orders”
PERFORMER “Cock Sparrer”
INDEX 01 00:00:00
FILE “12. Despite all this.wav” WAVE
TRACK 12 AUDIO
TITLE “Despite all this”
PERFORMER “Cock Sparrer”
INDEX 01 00:00:00
FILE “13. Sussed.wav” WAVE
TRACK 13 AUDIO
TITLE “Sussed”
PERFORMER “Cock Sparrer”
INDEX 01 00:00:00
FILE “14. Suicide Girls.wav” WAVE
TRACK 14 AUDIO
TITLE “Suicide Girls”
PERFORMER “Cock Sparrer”
INDEX 01 00:00:00


Leave a Reply

Your email address will not be published. Required fields are marked *

This site uses Akismet to reduce spam. Learn how your comment data is processed.