Cock Sparrer – Guilty As Charged 2009 (Remastered)




Artist: Cock Sparrer
Year: 1994/2009
Genre: Oi
Notes: Discogs
Add. Notes: Remastered
Cover incl.: Yes
Encoder: FLAC
Bitrate: ~1000 kBit/s (44.1 kHz/16 Bit/s)
Log & Cue incl.: Yes
Size: 432,28 MB
Password: “slam” (without ” “)


All Downloads/Hosters are compatible

Download 1
Turbobit.net
Rapidgator.net
KatFile.com
UploadRar.com
Download 2
Turbobit.net
Rapidgator.net
KatFile.com
UploadRar.com

Tracklist:

1 - Get A Rope - 3:14
2 - Because You're Young - 3:46
3 - Bird Trouble - 4:13
4 - Don't Blame Us - 3:12
5 - Roads To Freedom (2009 Edit) - 3:51
6 - Last Train To Dagenham - 2:34
7 - I Fit Central Heating (Working Part 2) - 4:01
8 - Strip - 3:47
9 - Crack In The Mirror - 5:44
10 - We Know How To Live - 3:54
11 - Tough Guys - 3:44
Bonus Tracks
12 - Runaway Johnny - 3:27
13 - Why Can't You See? - 3:13
14 - Sunday Stripper (1995) - 3:25
15 - Roads To Freedom (Full Version) - 5:03

EAC-Log, CUE-Sheed & NFO:

Click to open spoiler
Exact Audio Copy V0.99 prebeta 4 from 23. January 2008

EAC extraction logfile from 5. May 2009, 7:48

Cock Sparrer / Guilty As Charged 2009

Used drive : TSSTcorpCDDVDW SH-S223F Adapter: 4 ID: 0

Read mode : Secure
Utilize accurate stream : Yes
Defeat audio cache : Yes
Make use of C2 pointers : No

Read offset correction : 6
Overread into Lead-In and Lead-Out : No
Fill up missing offset samples with silence : Yes
Delete leading and trailing silent blocks : No
Null samples used in CRC calculations : No
Used interface : Native Win32 interface for Win NT & 2000
Gap handling : Appended to previous track

Used output format : Internal WAV Routines
Sample format : 44.100 Hz; 16 Bit; Stereo

TOC of the extracted CD

Track | Start | Length | Start sector | End sector
———————————————————
1 | 0:00.00 | 3:13.69 | 0 | 14543
2 | 3:13.69 | 3:45.67 | 14544 | 31485
3 | 6:59.61 | 4:13.36 | 31486 | 50496
4 | 11:13.22 | 3:12.20 | 50497 | 64916
5 | 14:25.42 | 3:51.35 | 64917 | 82276
6 | 18:17.02 | 2:33.72 | 82277 | 93823
7 | 20:50.74 | 4:01.19 | 93824 | 111917
8 | 24:52.18 | 3:46.42 | 111918 | 128909
9 | 28:38.60 | 5:43.40 | 128910 | 154674
10 | 34:22.25 | 3:53.44 | 154675 | 172193
11 | 38:15.69 | 3:44.16 | 172194 | 189009
12 | 42:00.10 | 3:26.64 | 189010 | 204523
13 | 45:26.74 | 3:13.07 | 204524 | 219005
14 | 48:40.06 | 3:24.63 | 219006 | 234368
15 | 52:04.69 | 5:02.61 | 234369 | 257079

Track 1

Filename C:\Cock Sparrer – Guilty As Charged 2009\01 Get A Rope.wav

Pre-gap length 0:00:02.00

Peak level 97.7 %
Track quality 99.9 %
Test CRC 1E175CEA
Copy CRC 1E175CEA
Copy OK

Track 2

Filename C:\Cock Sparrer – Guilty As Charged 2009\02 Because You’re Young.wav

Peak level 97.7 %
Track quality 100.0 %
Test CRC A7B50B04
Copy CRC A7B50B04
Copy OK

Track 3

Filename C:\Cock Sparrer – Guilty As Charged 2009\03 Bird Trouble.wav

Peak level 97.7 %
Track quality 100.0 %
Test CRC C2739D8D
Copy CRC C2739D8D
Copy OK

Track 4

Filename C:\Cock Sparrer – Guilty As Charged 2009\04 Don’t Blame Us.wav

Peak level 97.7 %
Track quality 99.9 %
Test CRC 34A0EC57
Copy CRC 34A0EC57
Copy OK

Track 5

Filename C:\Cock Sparrer – Guilty As Charged 2009\05 Roads To Freedom (2009 Edit).wav

Peak level 97.7 %
Track quality 100.0 %
Test CRC F34AFF1B
Copy CRC F34AFF1B
Copy OK

Track 6

Filename C:\Cock Sparrer – Guilty As Charged 2009\06 Last Train To Dagenham.wav

Peak level 97.7 %
Track quality 100.0 %
Test CRC 3487712A
Copy CRC 3487712A
Copy OK

Track 7

Filename C:\Cock Sparrer – Guilty As Charged 2009\07 I Fit Central Heating (Working Part 2).wav

Peak level 97.7 %
Track quality 100.0 %
Test CRC 0ACF4CEB
Copy CRC 0ACF4CEB
Copy OK

Track 8

Filename C:\Cock Sparrer – Guilty As Charged 2009\08 Strip.wav

Peak level 97.7 %
Track quality 100.0 %
Test CRC ABE7B638
Copy CRC ABE7B638
Copy OK

Track 9

Filename C:\Cock Sparrer – Guilty As Charged 2009\09 Crack In The Mirror.wav

Peak level 97.7 %
Track quality 100.0 %
Test CRC C1C1C915
Copy CRC C1C1C915
Copy OK

Track 10

Filename C:\Cock Sparrer – Guilty As Charged 2009\10 We Know How To Live.wav

Peak level 97.7 %
Track quality 100.0 %
Test CRC 05CE6FF0
Copy CRC 05CE6FF0
Copy OK

Track 11

Filename C:\Cock Sparrer – Guilty As Charged 2009\11 Tough Guys.wav

Peak level 97.7 %
Track quality 100.0 %
Test CRC 78DCAF8C
Copy CRC 78DCAF8C
Copy OK

Track 12

Filename C:\Cock Sparrer – Guilty As Charged 2009\12 Runaway Johnny.wav

Peak level 97.7 %
Track quality 99.9 %
Test CRC 324549BE
Copy CRC 324549BE
Copy OK

Track 13

Filename C:\Cock Sparrer – Guilty As Charged 2009\13 Why Can’t You see .wav

Peak level 97.7 %
Track quality 100.0 %
Test CRC B7AFDDE8
Copy CRC B7AFDDE8
Copy OK

Track 14

Filename C:\Cock Sparrer – Guilty As Charged 2009\14 Sunday Stripper (1995).wav

Peak level 97.7 %
Track quality 100.0 %
Test CRC 4FBBB582
Copy CRC 4FBBB582
Copy OK

Track 15

Filename C:\Cock Sparrer – Guilty As Charged 2009\15 Roads To Freedom (Full Version).wav

Peak level 97.7 %
Track quality 100.0 %
Test CRC 949BF6EA
Copy CRC 949BF6EA
Copy OK

No errors occurred

End of status report

REM GENRE Punk
REM DATE 2009
REM DISCID D10D630F
REM COMMENT “ExactAudioCopy v0.99pb4”
PERFORMER “Cock Sparrer”
TITLE “Guilty As Charged 2009”
FILE “01 Get A Rope.wav” WAVE
TRACK 01 AUDIO
TITLE “Get A Rope”
PERFORMER “Cock Sparrer”
INDEX 01 00:00:00
FILE “02 Because You’re Young.wav” WAVE
TRACK 02 AUDIO
TITLE “Because You’re Young”
PERFORMER “Cock Sparrer”
INDEX 01 00:00:00
FILE “03 Bird Trouble.wav” WAVE
TRACK 03 AUDIO
TITLE “Bird Trouble”
PERFORMER “Cock Sparrer”
INDEX 01 00:00:00
FILE “04 Don’t Blame Us.wav” WAVE
TRACK 04 AUDIO
TITLE “Don’t Blame Us”
PERFORMER “Cock Sparrer”
INDEX 01 00:00:00
FILE “05 Roads To Freedom (2009 Edit).wav” WAVE
TRACK 05 AUDIO
TITLE “Roads To Freedom (2009 Edit)”
PERFORMER “Cock Sparrer”
INDEX 01 00:00:00
FILE “06 Last Train To Dagenham.wav” WAVE
TRACK 06 AUDIO
TITLE “Last Train To Dagenham”
PERFORMER “Cock Sparrer”
INDEX 01 00:00:00
FILE “07 I Fit Central Heating (Working Part 2).wav” WAVE
TRACK 07 AUDIO
TITLE “I Fit Central Heating (Working Part 2)”
PERFORMER “Cock Sparrer”
INDEX 01 00:00:00
FILE “08 Strip.wav” WAVE
TRACK 08 AUDIO
TITLE “Strip”
PERFORMER “Cock Sparrer”
INDEX 01 00:00:00
FILE “09 Crack In The Mirror.wav” WAVE
TRACK 09 AUDIO
TITLE “Crack In The Mirror”
PERFORMER “Cock Sparrer”
INDEX 01 00:00:00
FILE “10 We Know How To Live.wav” WAVE
TRACK 10 AUDIO
TITLE “We Know How To Live”
PERFORMER “Cock Sparrer”
INDEX 01 00:00:00
FILE “11 Tough Guys.wav” WAVE
TRACK 11 AUDIO
TITLE “Tough Guys”
PERFORMER “Cock Sparrer”
INDEX 01 00:00:00
FILE “12 Runaway Johnny.wav” WAVE
TRACK 12 AUDIO
TITLE “Runaway Johnny”
PERFORMER “Cock Sparrer”
INDEX 01 00:00:00
FILE “13 Why Can’t You see .wav” WAVE
TRACK 13 AUDIO
TITLE “Why Can’t You see?”
PERFORMER “Cock Sparrer”
INDEX 01 00:00:00
FILE “14 Sunday Stripper (1995).wav” WAVE
TRACK 14 AUDIO
TITLE “Sunday Stripper (1995)”
PERFORMER “Cock Sparrer”
INDEX 01 00:00:00
FILE “15 Roads To Freedom (Full Version).wav” WAVE
TRACK 15 AUDIO
TITLE “Roads To Freedom (Full Version)”
PERFORMER “Cock Sparrer”
INDEX 01 00:00:00


Leave a Reply

Your email address will not be published. Required fields are marked *

This site uses Akismet to reduce spam. Learn how your comment data is processed.