Cock Sparrer – 40 Years (Limited Edition)




Artist: Cock Sparrer
Year: 2012
Genre: Oi
Notes: Discogs
Add. Notes: Limited Edition
Cover incl.: Yes
Encoder: FLAC
Bitrate: ~1000 kBit/s (44.1 kHz/16 Bit/s)
Log & Cue incl.: Yes
Size: 501,38 MB
Password: “slam” (without ” “)


All Downloads/Hosters are compatible

Download 1
Turbobit.net
Rapidgator.net
UploadEver.com
KatFile.com
UsersDrive.com
Download 2
Turbobit.net
Rapidgator.net
UploadEver.com
KatFile.com
UsersDrive.com
Download 3
Turbobit.net
Rapidgator.net
UploadEver.com
KatFile.com
UsersDrive.com

Tracklist:

1. Runnin' Riot 
2. Teenage Heart 
3. Taken For A Ride 
4. Riot Squad 
5. Out On An Island 
6. Where Are They Now 
7. I Got Your Number 
8. Closedown 
9. Think Again 
10. We Know How To Live 
11. Why Can't You See? 
12. East End Girl 
13. Au 
14. Battersea Bardot 
15. Bats Out 
16. Too Late 
17. True To Yourself 
18. Suicide Girls 
19. Because You're Young (2007) 
20. England Belongs To Me (Feat. Dan Hardy)

EAC-Log, CUE-Sheed & NFO:

Click to open spoiler
Exact Audio Copy V1.1 from 23. June 2015

EAC extraction logfile from 20. May 2016, 19:38

Cock Sparrer / 40 Years

Used drive : ATAPI iHAS124 B Adapter: 1 ID: 0

Read mode : Secure
Utilize accurate stream : Yes
Defeat audio cache : Yes
Make use of C2 pointers : No

Read offset correction : 6
Overread into Lead-In and Lead-Out : No
Fill up missing offset samples with silence : Yes
Delete leading and trailing silent blocks : No
Null samples used in CRC calculations : Yes
Used interface : Native Win32 interface for Win NT & 2000

Used output format : User Defined Encoder
Selected bitrate : 1024 kBit/s
Quality : High
Add ID3 tag : No
Command line compressor : C:\Program Files\Exact Audio Copy\Flac\flac.exe
Additional command line options : -V -8 -T “Date=%year%” -T “Genre=%genre%” %source%

TOC of the extracted CD

Track | Start | Length | Start sector | End sector
———————————————————
1 | 0:00.00 | 3:12.31 | 0 | 14430
2 | 3:12.31 | 2:23.06 | 14431 | 25161
3 | 5:35.37 | 2:02.45 | 25162 | 34356
4 | 7:38.07 | 2:44.46 | 34357 | 46702
5 | 10:22.53 | 4:39.15 | 46703 | 67642
6 | 15:01.68 | 2:57.69 | 67643 | 80986
7 | 17:59.62 | 2:48.01 | 80987 | 93587
8 | 20:47.63 | 2:58.46 | 93588 | 106983
9 | 23:46.34 | 3:47.03 | 106984 | 124011
10 | 27:33.37 | 3:53.46 | 124012 | 141532
11 | 31:27.08 | 3:12.57 | 141533 | 155989
12 | 34:39.65 | 3:42.43 | 155990 | 172682
13 | 38:22.33 | 3:53.12 | 172683 | 190169
14 | 42:15.45 | 3:22.33 | 190170 | 205352
15 | 45:38.03 | 3:28.63 | 205353 | 221015
16 | 49:06.66 | 3:02.00 | 221016 | 234665
17 | 52:08.66 | 3:29.57 | 234666 | 250397
18 | 55:38.48 | 3:02.60 | 250398 | 264107
19 | 58:41.33 | 6:56.34 | 264108 | 295341
20 | 65:37.67 | 3:06.33 | 295342 | 309324

Range status and errors

Selected range

Filename C:\Users\ARNOLDAS\Videos\Cock Sparrer – 40 Years (2012 – FLAC)\Cock Sparrer – 40 Years.wav

Peak level 97.7 %
Extraction speed 9.6 X
Range quality 100.0 %
Test CRC A139D0D5
Copy CRC A139D0D5
Copy OK

No errors occurred

End of status report

==== Log checksum 03E71FD6F703B30C8229195A71D20F597D2C57ACDF338A57B33888892FB94071 ====

REM GENRE “Punk Rock”
REM DATE 2012
REM DISCID 13101C14
REM COMMENT “ExactAudioCopy v1.1”
PERFORMER “Cock Sparrer ”
TITLE “40 Years”
FILE “Cock Sparrer – 40 Years.flac” WAVE
TRACK 01 AUDIO
TITLE “Runnin’ Riot”
PERFORMER “Cock Sparrer ”
FLAGS DCP
INDEX 01 00:00:00
TRACK 02 AUDIO
TITLE “Teenage Heart”
PERFORMER “Cock Sparrer ”
FLAGS DCP
INDEX 01 03:12:31
TRACK 03 AUDIO
TITLE “Taken For A Ride”
PERFORMER “Cock Sparrer ”
FLAGS DCP
INDEX 01 05:35:37
TRACK 04 AUDIO
TITLE “Riot Squad”
PERFORMER “Cock Sparrer ”
FLAGS DCP
INDEX 01 07:38:07
TRACK 05 AUDIO
TITLE “Out On An Island”
PERFORMER “Cock Sparrer ”
FLAGS DCP
INDEX 01 10:22:53
TRACK 06 AUDIO
TITLE “Where Are They Now”
PERFORMER “Cock Sparrer ”
FLAGS DCP
INDEX 01 15:01:68
TRACK 07 AUDIO
TITLE “I Got Your Number”
PERFORMER “Cock Sparrer ”
FLAGS DCP
INDEX 01 17:59:62
TRACK 08 AUDIO
TITLE “Closedown”
PERFORMER “Cock Sparrer ”
FLAGS DCP
INDEX 01 20:47:63
TRACK 09 AUDIO
TITLE “Think Again”
PERFORMER “Cock Sparrer ”
FLAGS DCP
INDEX 01 23:46:34
TRACK 10 AUDIO
TITLE “We Know How To Live”
PERFORMER “Cock Sparrer ”
FLAGS DCP
INDEX 01 27:33:37
TRACK 11 AUDIO
TITLE “Why Can’t You See?”
PERFORMER “Cock Sparrer ”
FLAGS DCP
INDEX 01 31:27:08
TRACK 12 AUDIO
TITLE “East End Girl”
PERFORMER “Cock Sparrer ”
FLAGS DCP
INDEX 01 34:39:65
TRACK 13 AUDIO
TITLE “Au”
PERFORMER “Cock Sparrer ”
FLAGS DCP
INDEX 01 38:22:33
TRACK 14 AUDIO
TITLE “Battersea Bardot”
PERFORMER “Cock Sparrer ”
FLAGS DCP
INDEX 01 42:15:45
TRACK 15 AUDIO
TITLE “Bats Out”
PERFORMER “Cock Sparrer ”
FLAGS DCP
INDEX 01 45:38:03
TRACK 16 AUDIO
TITLE “Too Late”
PERFORMER “Cock Sparrer ”
FLAGS DCP
INDEX 01 49:06:66
TRACK 17 AUDIO
TITLE “True To Yourself”
PERFORMER “Cock Sparrer ”
FLAGS DCP
INDEX 01 52:08:66
TRACK 18 AUDIO
TITLE “Suicide Girls”
PERFORMER “Cock Sparrer ”
FLAGS DCP
INDEX 01 55:38:48
TRACK 19 AUDIO
TITLE “Because You’re Young (2007)”
PERFORMER “Cock Sparrer ”
FLAGS DCP
INDEX 01 58:41:33
TRACK 20 AUDIO
TITLE “England Belongs To Me (Feat. Dan Hardy)”
PERFORMER “Cock Sparrer ”
FLAGS DCP
INDEX 01 65:37:67


Leave a Reply

Your email address will not be published. Required fields are marked *

Enter the text from the image below
 

This site uses Akismet to reduce spam. Learn how your comment data is processed.