Clouds – Durere




No Cover available


Artist: Clouds
Year: 2020
Genre: Metal
Notes: Discogs
Add. Notes:
Watch Songs on: YouTube
Cover incl.: No
Encoder: FLAC
Bitrate: ~800 kBit/s (44.1 kHz/16 Bit/s)
Log & Cue incl.: Yes/No
Size: 339,5 MB
Password: “slam” (without ” “)


All Downloads/Hosters are compatible

Download 1
KatFile.com
Turbobit.net
Rapidgator.net
FileFactory.com
Download 2
KatFile.com
Turbobit.net
Rapidgator.net
FileFactory.com

Tracklist:

01. Cold Guiding Light (8:03)
02. Empty Hearts (8:45)
03. Images And Memories (6:57)
04. Above The Sea (9:05)
05. The Sailor Waves Goodbye (9:37)
06. A Father's Death (8:48)
07. The End Of Hope (7:13)

EAC-Log, CUE-Sheed & NFO:

Click to open spoiler
CUE Corrector v. 8.3.6 / b. 967 (Feb. 23, 2020)
————————————————————————————————————————————————————————————————————————
Clouds Official / DURERE

Folder: Clouds – Durere 2020
Audio files:
Clouds Official – DURERE – 01 Cold Guiding Light.flac [08:03.000; FLAC • 850 kbps • 16 bit \ 44100 Hz • stereo; 48,95 MB (51 327 680 B)]
Clouds Official – DURERE – 02 Empty Hearts.flac [08:45.000; FLAC • 842 kbps • 16 bit \ 44100 Hz • stereo; 52,72 MB (55 281 143 B)]
Clouds Official – DURERE – 03 Images And Memories.flac [06:57.000; FLAC • 813 kbps • 16 bit \ 44100 Hz • stereo; 40,44 MB (42 407 330 B)]
Clouds Official – DURERE – 04 Above The Sea.flac [09:05.000; FLAC • 753 kbps • 16 bit \ 44100 Hz • stereo; 48,93 MB (51 302 276 B)]
Clouds Official – DURERE – 05 The Sailor Waves Goodbye.flac [09:37.000; FLAC • 782 kbps • 16 bit \ 44100 Hz • stereo; 53,84 MB (56 452 720 B)]
Clouds Official – DURERE – 06 A Father’s Death.flac [08:48.000; FLAC • 770 kbps • 16 bit \ 44100 Hz • stereo; 48,48 MB (50 838 490 B)]
Clouds Official – DURERE – 07 The End Of Hope.flac [07:13.000; FLAC • 826 kbps • 16 bit \ 44100 Hz • stereo; 42,64 MB (44 709 086 B)]

Accuracy: -m0

File Clouds Official – DURERE – 01 Cold Guiding Light – 100% CDDA [08:03:00]
File Clouds Official – DURERE – 02 Empty Hearts – 100% CDDA [08:45:00]
File Clouds Official – DURERE – 03 Images And Memories – 100% CDDA [06:57:00]
File Clouds Official – DURERE – 04 Above The Sea – 100% CDDA [09:05:00]
File Clouds Official – DURERE – 05 The Sailor Waves Goodbye – 100% CDDA [09:37:00]
File Clouds Official – DURERE – 06 A Father’s Death – 100% CDDA [08:48:00]
File Clouds Official – DURERE – 07 The End Of Hope – 100% CDDA [07:13:00]
————— Summary: —————
These tracks looks like CDDA with probability 100%.
————————————————————————————————————————————————————————————————————————

ANALYZER:
auCDtect: CD records authenticity detector, version 0.8.2
Copyright (c) 2004 Oleg Berngardt. All rights reserved.
Copyright (c) 2004 Alexander Djourik. All rights reserved.

Time elapsed: 8 m 12 s
Log created at March 04, 2020 14:43:04

=== E55C3DEB45671294BE31770696BA61798591525F3EFE6809A0304ADA6B30C4E2 ===
foobar2000 1.3.14 / Dynamic Range Meter 1.1.1
log date: 2020-03-04 14:34:00

——————————————————————————–
Analyzed: Clouds Official / DURERE
——————————————————————————–

DR Peak RMS Duration Track
——————————————————————————–
DR4 -0.78 dB -7.13 dB 8:03 01-Cold Guiding Light
DR4 -0.78 dB -8.10 dB 8:45 02-Empty Hearts
DR4 -0.78 dB -8.98 dB 6:57 03-Images And Memories
DR4 -0.78 dB -7.95 dB 9:05 04-Above The Sea
DR4 -0.78 dB -7.46 dB 9:37 05-The Sailor Waves Goodbye
DR4 -0.78 dB -8.52 dB 8:48 06-A Father’s Death
DR4 -0.78 dB -7.82 dB 7:13 07-The End Of Hope
——————————————————————————–

Number of tracks: 7
Official DR value: DR4

Samplerate: 44100 Hz
Channels: 2
Bits per sample: 16
Bitrate: 824 kbps
Codec: FLAC
================================================================================


Leave a Reply

Your email address will not be published. Required fields are marked *

Enter the text from the image below
 

This site uses Akismet to reduce spam. Learn how your comment data is processed.