Clawfinger – Zeros & Heroes




Artist: Clawfinger
Year: 2003
Genre: Metal
Notes: Discogs
Add. Notes:
Encoder: FLAC
Bitrate: ~900 kBit/s (44.1 kHz/16 Bit/s)
Bin/Cue incl.: Yes
Size: 352,65 MB
Password: “slam” (without ” “)


http://www.share-online.biz/dl/MNYFMWRP2IS

https://rapidgator.net/file/827d0659825d36a82e1d0a63e0ec6d5b

https://uploadbyte.com/3kczvy7jni1r

https://uploadever.com/csap2usten2h

https://justupload.io/o4mwyzay99kv

Tracklist:

1 - Zeros & Heroes - 4:11
2 - Recipe For Hate - 2:55
3 - When Everything Crumbles - 3:51
4 - 15 Minutes Of Fame - 3:35
5 - World Domination - 3:56
6 - Bitch - 3:50
7 - Four Letter Word - 3:23
8 - Money Power Glory - 3:33
9 - Kick It - 3:18
10 - Live Like A Man - 2:51
11 - Step Aside - 3:12
12 - Blame - 3:53
13-85 - (no audio) - 
86 - I Gave You My Middle Clawfinger - 0:12
87-98 - (no audio) 

EAC-Log, CUE-Sheed & NFO:

Click to open spoiler
Exact Audio Copy V1.1 from 23. June 2015

EAC extraction logfile from 13. March 2017, 18:18

Clawfinger / Zeros & Heroes

Used drive : ASUS DRW-24B1ST Adapter: 1 ID: 1

Read mode : Secure
Utilize accurate stream : Yes
Defeat audio cache : Yes
Make use of C2 pointers : No

Read offset correction : 6
Overread into Lead-In and Lead-Out : No
Fill up missing offset samples with silence : Yes
Delete leading and trailing silent blocks : No
Null samples used in CRC calculations : Yes
Used interface : Native Win32 interface for Win NT & 2000

Used output format : User Defined Encoder
Selected bitrate : 1024 kBit/s
Quality : High
Add ID3 tag : No
Command line compressor : C:\Program Files (x86)\Exact Audio Copy\Flac\flac.exe
Additional command line options : -V -8 -T “Date=%year%” -T “Genre=%genre%” %source%

TOC of the extracted CD

Track | Start | Length | Start sector | End sector
———————————————————
1 | 0:00.00 | 4:11.02 | 0 | 18826
2 | 4:11.02 | 2:55.13 | 18827 | 31964
3 | 7:06.15 | 3:51.37 | 31965 | 49326
4 | 10:57.52 | 3:35.49 | 49327 | 65500
5 | 14:33.26 | 3:55.31 | 65501 | 83156
6 | 18:28.57 | 3:49.67 | 83157 | 100398
7 | 22:18.49 | 3:22.67 | 100399 | 115615
8 | 25:41.41 | 3:33.24 | 115616 | 131614
9 | 29:14.65 | 3:17.69 | 131615 | 146458
10 | 32:32.59 | 2:51.20 | 146459 | 159303
11 | 35:24.04 | 3:12.24 | 159304 | 173727
12 | 38:36.28 | 3:54.14 | 173728 | 191291
13 | 42:30.42 | 0:04.02 | 191292 | 191593
14 | 42:34.44 | 0:04.03 | 191594 | 191896
15 | 42:38.47 | 0:04.04 | 191897 | 192200
16 | 42:42.51 | 0:04.04 | 192201 | 192504
17 | 42:46.55 | 0:04.02 | 192505 | 192806
18 | 42:50.57 | 0:04.03 | 192807 | 193109
19 | 42:54.60 | 0:04.03 | 193110 | 193412
20 | 42:58.63 | 0:04.04 | 193413 | 193716
21 | 43:02.67 | 0:04.03 | 193717 | 194019
22 | 43:06.70 | 0:04.04 | 194020 | 194323
23 | 43:10.74 | 0:04.05 | 194324 | 194628
24 | 43:15.04 | 0:04.04 | 194629 | 194932
25 | 43:19.08 | 0:04.03 | 194933 | 195235
26 | 43:23.11 | 0:04.03 | 195236 | 195538
27 | 43:27.14 | 0:04.04 | 195539 | 195842
28 | 43:31.18 | 0:04.05 | 195843 | 196147
29 | 43:35.23 | 0:04.03 | 196148 | 196450
30 | 43:39.26 | 0:04.03 | 196451 | 196753
31 | 43:43.29 | 0:04.03 | 196754 | 197056
32 | 43:47.32 | 0:04.04 | 197057 | 197360
33 | 43:51.36 | 0:04.03 | 197361 | 197663
34 | 43:55.39 | 0:04.03 | 197664 | 197966
35 | 43:59.42 | 0:04.03 | 197967 | 198269
36 | 44:03.45 | 0:04.04 | 198270 | 198573
37 | 44:07.49 | 0:04.03 | 198574 | 198876
38 | 44:11.52 | 0:04.04 | 198877 | 199180
39 | 44:15.56 | 0:04.04 | 199181 | 199484
40 | 44:19.60 | 0:04.04 | 199485 | 199788
41 | 44:23.64 | 0:04.03 | 199789 | 200091
42 | 44:27.67 | 0:04.05 | 200092 | 200396
43 | 44:31.72 | 0:04.03 | 200397 | 200699
44 | 44:36.00 | 0:04.04 | 200700 | 201003
45 | 44:40.04 | 0:04.04 | 201004 | 201307
46 | 44:44.08 | 0:04.04 | 201308 | 201611
47 | 44:48.12 | 0:04.04 | 201612 | 201915
48 | 44:52.16 | 0:04.04 | 201916 | 202219
49 | 44:56.20 | 0:04.03 | 202220 | 202522
50 | 45:00.23 | 0:04.03 | 202523 | 202825
51 | 45:04.26 | 0:04.04 | 202826 | 203129
52 | 45:08.30 | 0:04.04 | 203130 | 203433
53 | 45:12.34 | 0:04.05 | 203434 | 203738
54 | 45:16.39 | 0:04.05 | 203739 | 204043
55 | 45:20.44 | 0:04.05 | 204044 | 204348
56 | 45:24.49 | 0:04.05 | 204349 | 204653
57 | 45:28.54 | 0:04.05 | 204654 | 204958
58 | 45:32.59 | 0:04.06 | 204959 | 205264
59 | 45:36.65 | 0:04.04 | 205265 | 205568
60 | 45:40.69 | 0:04.04 | 205569 | 205872
61 | 45:44.73 | 0:04.03 | 205873 | 206175
62 | 45:49.01 | 0:04.04 | 206176 | 206479
63 | 45:53.05 | 0:04.04 | 206480 | 206783
64 | 45:57.09 | 0:04.04 | 206784 | 207087
65 | 46:01.13 | 0:04.04 | 207088 | 207391
66 | 46:05.17 | 0:04.04 | 207392 | 207695
67 | 46:09.21 | 0:04.04 | 207696 | 207999
68 | 46:13.25 | 0:04.04 | 208000 | 208303
69 | 46:17.29 | 0:04.05 | 208304 | 208608
70 | 46:21.34 | 0:04.04 | 208609 | 208912
71 | 46:25.38 | 0:04.05 | 208913 | 209217
72 | 46:29.43 | 0:04.04 | 209218 | 209521
73 | 46:33.47 | 0:04.04 | 209522 | 209825
74 | 46:37.51 | 0:04.04 | 209826 | 210129
75 | 46:41.55 | 0:04.04 | 210130 | 210433
76 | 46:45.59 | 0:04.04 | 210434 | 210737
77 | 46:49.63 | 0:04.04 | 210738 | 211041
78 | 46:53.67 | 0:04.05 | 211042 | 211346
79 | 46:57.72 | 0:04.05 | 211347 | 211651
80 | 47:02.02 | 0:04.04 | 211652 | 211955
81 | 47:06.06 | 0:04.05 | 211956 | 212260
82 | 47:10.11 | 0:04.05 | 212261 | 212565
83 | 47:14.16 | 0:04.04 | 212566 | 212869
84 | 47:18.20 | 0:04.03 | 212870 | 213172
85 | 47:22.23 | 0:04.06 | 213173 | 213478
86 | 47:26.29 | 0:12.28 | 213479 | 214406
87 | 47:38.57 | 0:04.06 | 214407 | 214712
88 | 47:42.63 | 0:04.05 | 214713 | 215017
89 | 47:46.68 | 0:04.05 | 215018 | 215322
90 | 47:50.73 | 0:04.05 | 215323 | 215627
91 | 47:55.03 | 0:04.05 | 215628 | 215932
92 | 47:59.08 | 0:04.06 | 215933 | 216238
93 | 48:03.14 | 0:04.05 | 216239 | 216543
94 | 48:07.19 | 0:04.04 | 216544 | 216847
95 | 48:11.23 | 0:04.05 | 216848 | 217152
96 | 48:15.28 | 0:04.05 | 217153 | 217457
97 | 48:19.33 | 0:04.05 | 217458 | 217762
98 | 48:23.38 | 0:04.27 | 217763 | 218089
99 | 50:59.65 | 22:58.10 | 229490 | 332849

Range status and errors

Selected range

Filename E:\Torrent\# MY\# Подготовка раздач\Clawfinger\2003 – Zeros & Heroes (Ltd.) (Supersonic Records, SUPERSONIC 132, E.U.)\Clawfinger – Zeros & Heroes.wav

Peak level 98.8 %
Extraction speed 5.0 X
Range quality 99.9 %
Test CRC A22FDCD5
Copy CRC A22FDCD5
Copy OK

No errors occurred

AccurateRip summary

Track 1 accurately ripped (confidence 4) [A4518B37] (AR v2)
Track 2 accurately ripped (confidence 4) [A05B6A51] (AR v2)
Track 3 accurately ripped (confidence 4) [3275B13E] (AR v2)
Track 4 accurately ripped (confidence 5) [01AA03C7] (AR v2)
Track 5 accurately ripped (confidence 5) [E0EE1206] (AR v2)
Track 6 accurately ripped (confidence 5) [6F7573D2] (AR v2)
Track 7 accurately ripped (confidence 3) [BEC5450B] (AR v2)
Track 8 accurately ripped (confidence 5) [62914AAC] (AR v2)
Track 9 accurately ripped (confidence 5) [9A8B40A0] (AR v2)
Track 10 accurately ripped (confidence 4) [50107539] (AR v2)
Track 11 accurately ripped (confidence 5) [4CA6225A] (AR v2)
Track 12 accurately ripped (confidence 4) [EB20873D] (AR v2)
Track 13 not present in database
Track 14 not present in database
Track 15 not present in database
Track 16 not present in database
Track 17 not present in database
Track 18 not present in database
Track 19 not present in database
Track 20 not present in database
Track 21 not present in database
Track 22 not present in database
Track 23 not present in database
Track 24 not present in database
Track 25 not present in database
Track 26 not present in database
Track 27 not present in database
Track 28 not present in database
Track 29 not present in database
Track 30 not present in database
Track 31 not present in database
Track 32 not present in database
Track 33 not present in database
Track 34 not present in database
Track 35 not present in database
Track 36 not present in database
Track 37 not present in database
Track 38 not present in database
Track 39 not present in database
Track 40 not present in database
Track 41 not present in database
Track 42 not present in database
Track 43 not present in database
Track 44 not present in database
Track 45 not present in database
Track 46 not present in database
Track 47 not present in database
Track 48 not present in database
Track 49 not present in database
Track 50 not present in database
Track 51 not present in database
Track 52 not present in database
Track 53 not present in database
Track 54 not present in database
Track 55 not present in database
Track 56 not present in database
Track 57 not present in database
Track 58 not present in database
Track 59 not present in database
Track 60 not present in database
Track 61 not present in database
Track 62 not present in database
Track 63 not present in database
Track 64 not present in database
Track 65 not present in database
Track 66 not present in database
Track 67 not present in database
Track 68 not present in database
Track 69 not present in database
Track 70 not present in database
Track 71 not present in database
Track 72 not present in database
Track 73 not present in database
Track 74 not present in database
Track 75 not present in database
Track 76 not present in database
Track 77 not present in database
Track 78 not present in database
Track 79 not present in database
Track 80 not present in database
Track 81 not present in database
Track 82 not present in database
Track 83 not present in database
Track 84 not present in database
Track 85 not present in database
Track 86 accurately ripped (confidence 3) [4F9B4450] (AR v2)
Track 87 not present in database
Track 88 not present in database
Track 89 not present in database
Track 90 not present in database
Track 91 not present in database
Track 92 not present in database
Track 93 not present in database
Track 94 not present in database
Track 95 not present in database
Track 96 not present in database
Track 97 not present in database
Track 98 not present in database

13 трек(и) скопированы точно
85 трек(и) не содержатся в базе AccurateRip

Some tracks could not be verified as accurate

End of status report

—- CUETools DB Plugin V2.1.6

[CTDB TOCID: w1jfmFZkcz5qQnJymjLomW.NfYk-] found
Submit result: w1jfmFZkcz5qQnJymjLomW.NfYk- has been uploaded
Track | CTDB Status
1 | ( 4/12) Accurately ripped
2 | ( 4/12) Accurately ripped
3 | ( 3/12) Accurately ripped
4 | ( 2/12) Accurately ripped
5 | ( 2/12) Accurately ripped, or (1/12) differs in 64 samples @02:47:06
6 | ( 3/12) Accurately ripped
7 | ( 3/12) Accurately ripped
8 | ( 3/12) Accurately ripped
9 | ( 2/12) Accurately ripped, or (1/12) differs in 16 samples @02:22:41
10 | ( 3/12) Accurately ripped
11 | ( 3/12) Accurately ripped
12 | ( 3/12) Accurately ripped
13 | (12/12) Accurately ripped
14 | (12/12) Accurately ripped
15 | (12/12) Accurately ripped
16 | (12/12) Accurately ripped
17 | (12/12) Accurately ripped
18 | (12/12) Accurately ripped
19 | (12/12) Accurately ripped
20 | (12/12) Accurately ripped
21 | (12/12) Accurately ripped
22 | (12/12) Accurately ripped
23 | (12/12) Accurately ripped
24 | (12/12) Accurately ripped
25 | (12/12) Accurately ripped
26 | (12/12) Accurately ripped
27 | (12/12) Accurately ripped
28 | (12/12) Accurately ripped
29 | (12/12) Accurately ripped
30 | (12/12) Accurately ripped
31 | (12/12) Accurately ripped
32 | (12/12) Accurately ripped
33 | (12/12) Accurately ripped
34 | (12/12) Accurately ripped
35 | (12/12) Accurately ripped
36 | (12/12) Accurately ripped
37 | (12/12) Accurately ripped
38 | (12/12) Accurately ripped
39 | (12/12) Accurately ripped
40 | (12/12) Accurately ripped
41 | (12/12) Accurately ripped
42 | (12/12) Accurately ripped
43 | (12/12) Accurately ripped
44 | (12/12) Accurately ripped
45 | (12/12) Accurately ripped
46 | (12/12) Accurately ripped
47 | (12/12) Accurately ripped
48 | (12/12) Accurately ripped
49 | (12/12) Accurately ripped
50 | (12/12) Accurately ripped
51 | (12/12) Accurately ripped
52 | (12/12) Accurately ripped
53 | (12/12) Accurately ripped
54 | (12/12) Accurately ripped
55 | (12/12) Accurately ripped
56 | (12/12) Accurately ripped
57 | (12/12) Accurately ripped
58 | (12/12) Accurately ripped
59 | (12/12) Accurately ripped
60 | (12/12) Accurately ripped
61 | (12/12) Accurately ripped
62 | (12/12) Accurately ripped
63 | (12/12) Accurately ripped
64 | (12/12) Accurately ripped
65 | (12/12) Accurately ripped
66 | (12/12) Accurately ripped
67 | (12/12) Accurately ripped
68 | (12/12) Accurately ripped
69 | (12/12) Accurately ripped
70 | (12/12) Accurately ripped
71 | (12/12) Accurately ripped
72 | (12/12) Accurately ripped
73 | (12/12) Accurately ripped
74 | (12/12) Accurately ripped
75 | (12/12) Accurately ripped
76 | (12/12) Accurately ripped
77 | (12/12) Accurately ripped
78 | (12/12) Accurately ripped
79 | (12/12) Accurately ripped
80 | (12/12) Accurately ripped
81 | (12/12) Accurately ripped
82 | (12/12) Accurately ripped
83 | (12/12) Accurately ripped
84 | (12/12) Accurately ripped
85 | (12/12) Accurately ripped
86 | ( 3/12) Accurately ripped
87 | (12/12) Accurately ripped
88 | (12/12) Accurately ripped
89 | (12/12) Accurately ripped
90 | (12/12) Accurately ripped
91 | (12/12) Accurately ripped
92 | (12/12) Accurately ripped
93 | (12/12) Accurately ripped
94 | (12/12) Accurately ripped
95 | (12/12) Accurately ripped
96 | (12/12) Accurately ripped
97 | (12/12) Accurately ripped
98 | (12/12) Accurately ripped
If you are sure that your rip contains errors, you can use CUETools to repair it.

==== Log checksum CE9AA22BA8E6E58DDFBEFFA99342C1A5258C968F6AC00B6C2677DA447DFB816B ====

REM GENRE Alternative
REM DATE 2003
REM DISCID B9115663
REM COMMENT “ExactAudioCopy v1.1”
PERFORMER “Clawfinger”
TITLE “Zeros & Heroes”
FILE “Clawfinger – Zeros & Heroes.flac” WAVE
TRACK 01 AUDIO
TITLE “Zeros & Heroes”
PERFORMER “Clawfinger”
ISRC DEAo60300082
INDEX 01 00:00:00
TRACK 02 AUDIO
TITLE “Recipe For Hate”
PERFORMER “Clawfinger”
ISRC DEAo60300083
INDEX 01 04:11:02
TRACK 03 AUDIO
TITLE “When Everything Crumbles”
PERFORMER “Clawfinger”
ISRC DEAo60300084
INDEX 01 07:06:15
TRACK 04 AUDIO
TITLE “15 Minutes Of Fame”
PERFORMER “Clawfinger”
ISRC DEAo60300085
INDEX 01 10:57:52
TRACK 05 AUDIO
TITLE “World Domination”
PERFORMER “Clawfinger”
ISRC DEAo60300086
INDEX 01 14:33:26
TRACK 06 AUDIO
TITLE “Bitch”
PERFORMER “Clawfinger”
ISRC DEAo60300087
INDEX 01 18:28:57
TRACK 07 AUDIO
TITLE “Four Letter Word”
PERFORMER “Clawfinger”
ISRC DEAo60300088
INDEX 01 22:18:49
TRACK 08 AUDIO
TITLE “Money Power Glory”
PERFORMER “Clawfinger”
ISRC DEAo60300088
INDEX 01 25:41:41
TRACK 09 AUDIO
TITLE “Kick It”
PERFORMER “Clawfinger”
ISRC DEAo60300089
INDEX 01 29:14:65
TRACK 10 AUDIO
TITLE “Live Like A Man”
PERFORMER “Clawfinger”
ISRC DEAo60300091
INDEX 01 32:32:59
TRACK 11 AUDIO
TITLE “Step Aside”
PERFORMER “Clawfinger”
ISRC DEAo60300092
INDEX 01 35:24:04
TRACK 12 AUDIO
TITLE “Blame”
PERFORMER “Clawfinger”
ISRC DEAo60300092
INDEX 01 38:36:28
TRACK 13 AUDIO
TITLE “[silence]”
PERFORMER “Clawfinger”
INDEX 01 42:30:42
TRACK 14 AUDIO
TITLE “[silence]”
PERFORMER “Clawfinger”
INDEX 01 42:34:44
TRACK 15 AUDIO
TITLE “[silence]”
PERFORMER “Clawfinger”
INDEX 01 42:38:47
TRACK 16 AUDIO
TITLE “[silence]”
PERFORMER “Clawfinger”
INDEX 01 42:42:51
TRACK 17 AUDIO
TITLE “[silence]”
PERFORMER “Clawfinger”
INDEX 01 42:46:55
TRACK 18 AUDIO
TITLE “[silence]”
PERFORMER “Clawfinger”
INDEX 01 42:50:57
TRACK 19 AUDIO
TITLE “[silence]”
PERFORMER “Clawfinger”
INDEX 01 42:54:60
TRACK 20 AUDIO
TITLE “[silence]”
PERFORMER “Clawfinger”
INDEX 01 42:58:63
TRACK 21 AUDIO
TITLE “[silence]”
PERFORMER “Clawfinger”
INDEX 01 43:02:67
TRACK 22 AUDIO
TITLE “[silence]”
PERFORMER “Clawfinger”
INDEX 01 43:06:70
TRACK 23 AUDIO
TITLE “[silence]”
PERFORMER “Clawfinger”
INDEX 01 43:10:74
TRACK 24 AUDIO
TITLE “[silence]”
PERFORMER “Clawfinger”
INDEX 01 43:15:04
TRACK 25 AUDIO
TITLE “[silence]”
PERFORMER “Clawfinger”
INDEX 01 43:19:08
TRACK 26 AUDIO
TITLE “[silence]”
PERFORMER “Clawfinger”
INDEX 01 43:23:11
TRACK 27 AUDIO
TITLE “[silence]”
PERFORMER “Clawfinger”
INDEX 01 43:27:14
TRACK 28 AUDIO
TITLE “[silence]”
PERFORMER “Clawfinger”
INDEX 01 43:31:18
TRACK 29 AUDIO
TITLE “[silence]”
PERFORMER “Clawfinger”
INDEX 01 43:35:23
TRACK 30 AUDIO
TITLE “[silence]”
PERFORMER “Clawfinger”
INDEX 01 43:39:26
TRACK 31 AUDIO
TITLE “[silence]”
PERFORMER “Clawfinger”
INDEX 01 43:43:29
TRACK 32 AUDIO
TITLE “[silence]”
PERFORMER “Clawfinger”
INDEX 01 43:47:32
TRACK 33 AUDIO
TITLE “[silence]”
PERFORMER “Clawfinger”
INDEX 01 43:51:36
TRACK 34 AUDIO
TITLE “[silence]”
PERFORMER “Clawfinger”
INDEX 01 43:55:39
TRACK 35 AUDIO
TITLE “[silence]”
PERFORMER “Clawfinger”
INDEX 01 43:59:42
TRACK 36 AUDIO
TITLE “[silence]”
PERFORMER “Clawfinger”
INDEX 01 44:03:45
TRACK 37 AUDIO
TITLE “[silence]”
PERFORMER “Clawfinger”
INDEX 01 44:07:49
TRACK 38 AUDIO
TITLE “[silence]”
PERFORMER “Clawfinger”
INDEX 01 44:11:52
TRACK 39 AUDIO
TITLE “[silence]”
PERFORMER “Clawfinger”
INDEX 01 44:15:56
TRACK 40 AUDIO
TITLE “[silence]”
PERFORMER “Clawfinger”
INDEX 01 44:19:60
TRACK 41 AUDIO
TITLE “[silence]”
PERFORMER “Clawfinger”
INDEX 01 44:23:64
TRACK 42 AUDIO
TITLE “[silence]”
PERFORMER “Clawfinger”
INDEX 01 44:27:67
TRACK 43 AUDIO
TITLE “[silence]”
PERFORMER “Clawfinger”
INDEX 01 44:31:72
TRACK 44 AUDIO
TITLE “[silence]”
PERFORMER “Clawfinger”
INDEX 01 44:36:00
TRACK 45 AUDIO
TITLE “[silence]”
PERFORMER “Clawfinger”
INDEX 01 44:40:04
TRACK 46 AUDIO
TITLE “[silence]”
PERFORMER “Clawfinger”
INDEX 01 44:44:08
TRACK 47 AUDIO
TITLE “[silence]”
PERFORMER “Clawfinger”
INDEX 01 44:48:12
TRACK 48 AUDIO
TITLE “[silence]”
PERFORMER “Clawfinger”
INDEX 01 44:52:16
TRACK 49 AUDIO
TITLE “[silence]”
PERFORMER “Clawfinger”
INDEX 01 44:56:20
TRACK 50 AUDIO
TITLE “[silence]”
PERFORMER “Clawfinger”
INDEX 01 45:00:23
TRACK 51 AUDIO
TITLE “[silence]”
PERFORMER “Clawfinger”
INDEX 01 45:04:26
TRACK 52 AUDIO
TITLE “[silence]”
PERFORMER “Clawfinger”
INDEX 01 45:08:30
TRACK 53 AUDIO
TITLE “[silence]”
PERFORMER “Clawfinger”
INDEX 01 45:12:34
TRACK 54 AUDIO
TITLE “[silence]”
PERFORMER “Clawfinger”
INDEX 01 45:16:39
TRACK 55 AUDIO
TITLE “[silence]”
PERFORMER “Clawfinger”
INDEX 01 45:20:44
TRACK 56 AUDIO
TITLE “[silence]”
PERFORMER “Clawfinger”
INDEX 01 45:24:49
TRACK 57 AUDIO
TITLE “[silence]”
PERFORMER “Clawfinger”
INDEX 01 45:28:54
TRACK 58 AUDIO
TITLE “[silence]”
PERFORMER “Clawfinger”
INDEX 01 45:32:59
TRACK 59 AUDIO
TITLE “[silence]”
PERFORMER “Clawfinger”
INDEX 01 45:36:65
TRACK 60 AUDIO
TITLE “[silence]”
PERFORMER “Clawfinger”
INDEX 01 45:40:69
TRACK 61 AUDIO
TITLE “[silence]”
PERFORMER “Clawfinger”
INDEX 01 45:44:73
TRACK 62 AUDIO
TITLE “[silence]”
PERFORMER “Clawfinger”
INDEX 01 45:49:01
TRACK 63 AUDIO
TITLE “[silence]”
PERFORMER “Clawfinger”
INDEX 01 45:53:05
TRACK 64 AUDIO
TITLE “[silence]”
PERFORMER “Clawfinger”
INDEX 01 45:57:09
TRACK 65 AUDIO
TITLE “[silence]”
PERFORMER “Clawfinger”
INDEX 01 46:01:13
TRACK 66 AUDIO
TITLE “[silence]”
PERFORMER “Clawfinger”
INDEX 01 46:05:17
TRACK 67 AUDIO
TITLE “[silence]”
PERFORMER “Clawfinger”
INDEX 01 46:09:21
TRACK 68 AUDIO
TITLE “[silence]”
PERFORMER “Clawfinger”
INDEX 01 46:13:25
TRACK 69 AUDIO
TITLE “[silence]”
PERFORMER “Clawfinger”
INDEX 01 46:17:29
TRACK 70 AUDIO
TITLE “[silence]”
PERFORMER “Clawfinger”
INDEX 01 46:21:34
TRACK 71 AUDIO
TITLE “[silence]”
PERFORMER “Clawfinger”
INDEX 01 46:25:38
TRACK 72 AUDIO
TITLE “[silence]”
PERFORMER “Clawfinger”
INDEX 01 46:29:43
TRACK 73 AUDIO
TITLE “[silence]”
PERFORMER “Clawfinger”
INDEX 01 46:33:47
TRACK 74 AUDIO
TITLE “[silence]”
PERFORMER “Clawfinger”
INDEX 01 46:37:51
TRACK 75 AUDIO
TITLE “[silence]”
PERFORMER “Clawfinger”
INDEX 01 46:41:55
TRACK 76 AUDIO
TITLE “[silence]”
PERFORMER “Clawfinger”
INDEX 01 46:45:59
TRACK 77 AUDIO
TITLE “[silence]”
PERFORMER “Clawfinger”
INDEX 01 46:49:63
TRACK 78 AUDIO
TITLE “[silence]”
PERFORMER “Clawfinger”
INDEX 01 46:53:67
TRACK 79 AUDIO
TITLE “[silence]”
PERFORMER “Clawfinger”
ISRC DEAo60300094
INDEX 01 46:57:72
TRACK 80 AUDIO
TITLE “[silence]”
PERFORMER “Clawfinger”
ISRC DEAo60300094
INDEX 01 47:02:02
TRACK 81 AUDIO
TITLE “[silence]”
PERFORMER “Clawfinger”
ISRC DEAo60300094
INDEX 01 47:06:06
TRACK 82 AUDIO
TITLE “[silence]”
PERFORMER “Clawfinger”
ISRC DEAo60300094
INDEX 01 47:10:11
TRACK 83 AUDIO
TITLE “[silence]”
PERFORMER “Clawfinger”
ISRC DEAo60300094
INDEX 01 47:14:16
TRACK 84 AUDIO
TITLE “[silence]”
PERFORMER “Clawfinger”
ISRC DEAo60300094
INDEX 01 47:18:20
TRACK 85 AUDIO
TITLE “[silence]”
PERFORMER “Clawfinger”
ISRC DEAo60300094
INDEX 01 47:22:23
TRACK 86 AUDIO
TITLE “Middle Clawfinger (Hidden track)”
PERFORMER “Clawfinger”
ISRC DEAo60300094
INDEX 01 47:26:29
TRACK 87 AUDIO
TITLE “[silence]”
PERFORMER “Clawfinger”
INDEX 01 47:38:57
TRACK 88 AUDIO
TITLE “[silence]”
PERFORMER “Clawfinger”
INDEX 01 47:42:63
TRACK 89 AUDIO
TITLE “[silence]”
PERFORMER “Clawfinger”
INDEX 01 47:46:68
TRACK 90 AUDIO
TITLE “[silence]”
PERFORMER “Clawfinger”
INDEX 01 47:50:73
TRACK 91 AUDIO
TITLE “[silence]”
PERFORMER “Clawfinger”
INDEX 01 47:55:03
TRACK 92 AUDIO
TITLE “[silence]”
PERFORMER “Clawfinger”
INDEX 01 47:59:08
TRACK 93 AUDIO
TITLE “[silence]”
PERFORMER “Clawfinger”
INDEX 01 48:03:14
TRACK 94 AUDIO
TITLE “[silence]”
PERFORMER “Clawfinger”
INDEX 01 48:07:19
TRACK 95 AUDIO
TITLE “[silence]”
PERFORMER “Clawfinger”
INDEX 01 48:11:23
TRACK 96 AUDIO
TITLE “[silence]”
PERFORMER “Clawfinger”
INDEX 01 48:15:28
TRACK 97 AUDIO
TITLE “[silence]”
PERFORMER “Clawfinger”
INDEX 01 48:19:33
TRACK 98 AUDIO
TITLE “[silence]”
PERFORMER “Clawfinger”
INDEX 01 48:23:38

Leave a Reply

Your email address will not be published. Required fields are marked *

This site uses Akismet to reduce spam. Learn how your comment data is processed.