Clawfinger – Use Your Brain




Artist: Clawfinger
Year: 1995
Genre: Metal
Notes: Discogs
Add. Notes:
Encoder: FLAC
Bitrate: ~1000 kBit/s (44.1 kHz/16 Bit/s)
Bin/Cue incl.: Yes
Size: 344,79 MB
Password: “slam” (without ” “)


http://www.share-online.biz/dl/PR9DYSRP2P
https://rapidgator.net/file/6bdd0645b82ca1dd5b98068df4f4c10c
https://uploadbyte.com/ospz07v2mbmk
https://justupload.io/fu196qpraxro
https://uploadever.com/w8qekmzg4tfp

Tracklist:

1 - Power - 3:14
2 - Pay The Bill - 4:20
3 - Pin Me Down - 4:10
4 - Waste My Time - 3:13
5 - Die High - 2:3
6 - It - 5:21
7 - Do What I Say - 4:25
8 - Undone - 4:11
9 - What Are You Afraid Of - 3:47
10 - Back To The Basics - 2:27
11 - Easy Way Out - 2:39
12 - Tomorrow - 4:09

EAC-Log, CUE-Sheed & NFO:

Click to open spoiler
Exact Audio Copy V1.1 from 23. June 2015

EAC extraction logfile from 12. March 2017, 17:50

Clawfinger / Use Your Brain

Used drive : ASUS DRW-24B1ST Adapter: 1 ID: 1

Read mode : Secure
Utilize accurate stream : Yes
Defeat audio cache : Yes
Make use of C2 pointers : No

Read offset correction : 6
Overread into Lead-In and Lead-Out : No
Fill up missing offset samples with silence : Yes
Delete leading and trailing silent blocks : No
Null samples used in CRC calculations : Yes
Used interface : Native Win32 interface for Win NT & 2000

Used output format : User Defined Encoder
Selected bitrate : 1024 kBit/s
Quality : High
Add ID3 tag : No
Command line compressor : C:\Program Files (x86)\Exact Audio Copy\Flac\flac.exe
Additional command line options : -V -8 -T “Date=%year%” -T “Genre=%genre%” %source%

TOC of the extracted CD

Track | Start | Length | Start sector | End sector
———————————————————
1 | 0:00.00 | 3:13.48 | 0 | 14522
2 | 3:13.48 | 4:20.35 | 14523 | 34057
3 | 7:34.08 | 4:09.55 | 34058 | 52787
4 | 11:43.63 | 3:12.57 | 52788 | 67244
5 | 14:56.45 | 2:33.55 | 67245 | 78774
6 | 17:30.25 | 5:21.15 | 78775 | 102864
7 | 22:51.40 | 4:25.00 | 102865 | 122739
8 | 27:16.40 | 4:11.35 | 122740 | 141599
9 | 31:28.00 | 3:46.65 | 141600 | 158614
10 | 35:14.65 | 2:26.55 | 158615 | 169619
11 | 37:41.45 | 2:39.15 | 169620 | 181559
12 | 40:20.60 | 4:08.43 | 181560 | 200202

Range status and errors

Selected range

Filename E:\Torrent\# MY\# Подготовка раздач\Clawfinger\1995 – Use Your Brain (MVG Records, 4509-99631-2, Germany)\Clawfinger – Use Your Brain.wav

Peak level 100.0 %
Extraction speed 5.2 X
Range quality 100.0 %
Test CRC 864E8559
Copy CRC 864E8559
Copy OK

No errors occurred

AccurateRip summary

Track 1 accurately ripped (confidence 8) [8C31A4A3] (AR v2)
Track 2 accurately ripped (confidence 8) [15770244] (AR v2)
Track 3 accurately ripped (confidence 8) [8384D9A6] (AR v2)
Track 4 accurately ripped (confidence 8) [0AF71617] (AR v2)
Track 5 accurately ripped (confidence 8) [F1495555] (AR v2)
Track 6 accurately ripped (confidence 8) [60489739] (AR v2)
Track 7 accurately ripped (confidence 8) [64DEF1BE] (AR v2)
Track 8 accurately ripped (confidence 8) [0D0B3F64] (AR v2)
Track 9 accurately ripped (confidence 8) [2DF79E6F] (AR v2)
Track 10 accurately ripped (confidence 8) [987ED247] (AR v2)
Track 11 accurately ripped (confidence 8) [1EC0021F] (AR v2)
Track 12 accurately ripped (confidence 8) [42306698] (AR v2)

All tracks accurately ripped

End of status report

—- CUETools DB Plugin V2.1.6

[CTDB TOCID: kdnLGp2l1Fvyw6TYdS4VZw7MoP0-] found
Submit result: kdnLGp2l1Fvyw6TYdS4VZw7MoP0- has been confirmed
Track | CTDB Status
1 | (357/360) Accurately ripped
2 | (357/360) Accurately ripped
3 | (356/360) Accurately ripped
4 | (352/360) Accurately ripped, or (2/360) differs in 169 samples @03:11:08-03:11:09
5 | (357/360) Accurately ripped
6 | (356/360) Accurately ripped
7 | (353/360) Accurately ripped, or (2/360) differs in 464 samples @04:14:10-04:14:13
8 | (354/360) Accurately ripped
9 | (355/360) Accurately ripped
10 | (356/360) Accurately ripped
11 | (355/360) Accurately ripped
12 | (355/360) Accurately ripped

==== Log checksum 9D98E176AEBAED8E780B16B42345FA8B1F7E6BD560A00A1FDF8F4B8E3BAAA9BC ====

REM GENRE Alternative
REM DATE 1995
REM DISCID A00A6D0C
REM COMMENT “ExactAudioCopy v1.1”
CATALOG 4509993400201
PERFORMER “Clawfinger”
TITLE “Use Your Brain”
FILE “Clawfinger – Use Your Brain.flac” WAVE
TRACK 01 AUDIO
TITLE “Power”
PERFORMER “Clawfinger”
ISRC SELBD9501010
INDEX 01 00:00:00
TRACK 02 AUDIO
TITLE “Pay The Bill”
PERFORMER “Clawfinger”
ISRC SELBD9501020
INDEX 01 03:13:48
TRACK 03 AUDIO
TITLE “Pin Me Down”
PERFORMER “Clawfinger”
ISRC SELBD9501030
INDEX 01 07:34:08
TRACK 04 AUDIO
TITLE “Waste My Time”
PERFORMER “Clawfinger”
ISRC SELBD9501040
INDEX 01 11:43:63
TRACK 05 AUDIO
TITLE “Die High”
PERFORMER “Clawfinger”
ISRC SELBD9501050
INDEX 01 14:56:45
TRACK 06 AUDIO
TITLE “It”
PERFORMER “Clawfinger”
ISRC SELBD9501060
INDEX 01 17:30:25
TRACK 07 AUDIO
TITLE “Do What I Say”
PERFORMER “Clawfinger”
ISRC SELBD9501070
INDEX 01 22:51:40
TRACK 08 AUDIO
TITLE “Undone”
PERFORMER “Clawfinger”
ISRC SELBD9501080
INDEX 01 27:16:40
TRACK 09 AUDIO
TITLE “What Are You Afraid Of”
PERFORMER “Clawfinger”
ISRC SELBD9501090
INDEX 01 31:28:00
TRACK 10 AUDIO
TITLE “Back To The Basics”
PERFORMER “Clawfinger”
ISRC SELBD9501100
INDEX 01 35:14:65
TRACK 11 AUDIO
TITLE “Easy Way Out”
PERFORMER “Clawfinger”
ISRC SELBD9501110
INDEX 01 37:41:45
TRACK 12 AUDIO
TITLE “Tomorrow”
PERFORMER “Clawfinger”
ISRC SELBD9501120
INDEX 01 40:20:60

Leave a Reply

Your email address will not be published. Required fields are marked *

Enter the text from the image below
 

This site uses Akismet to reduce spam. Learn how your comment data is processed.