Clawfinger – The Best Of Demos (20 Years Anniversary Box 1993-2013) (Deluxe Edition)




Artist: Clawfinger
Year: 2014
Genre: Rock
Notes: Discogs
Add. Notes: Deluxe Edition
Cover incl.: Yes
Encoder: FLAC
Bitrate: ~1000 kBit/s (44.1 kHz/16 Bit/s)
Log & Cue incl.: Yes
Size: 1453,95 MB
Password: “slam” (without ” “)


All Downloads/Hosters are compatible

Download 1
Turbobit.net
Rapidgator.net
UploadByte.com
UploadEver.com
JustUpload.io
Download 2
Turbobit.net
Rapidgator.net
UploadByte.com
UploadEver.com
JustUpload.io
Download 3
Turbobit.net
Rapidgator.net
UploadByte.com
UploadEver.com
JustUpload.io

Tracklist:

The Best Of Demos
CD1-1 - PMRC (1992) - 3:16
CD1-2 - Money Is (1992) - 3:53
CD1-3 - If You Don't Know Me (1995) - 3:23
CD1-4 - Tell Me What You Want From Me (1996) - 3:13
CD1-5 - You Gave Me Something To Think About (1997) - 
3:16
CD1-6 - Here We Go Again (1997) - 3:36
CD1-7 - The Choice Is Yours (1997) - 4:12
CD1-8 - Master Of Celebrity (1997) - 4:11
CD1-9 - I Don't Know (1997) - 3:55
CD1-10 - Ain't No Turning Back (1997) - 3:25
CD1-11 - Are You Man Enough (1997) - 5:03
CD1-12 - Fear Itself (1998) - 4:20
CD1-13 - Take What You Can Get (1999) - 3:18
CD1-14 - In A Mad World (1999) - 3:39
CD1-15 - My Dirty Mind (1999) - 3:32
CD1-16 - When Everything Crumbles (2002 Alt.Demo) - 
3:51
CD1-17 - Still Don't Know (2002) - 4:05
CD1-18 - Turn It Off (2005) - 3:46
CD1-19 - All The Way (2006) - 3:22
CD1-20 - Back To The Basics (1993 Unreleased Track) - 
4:03
The Best Of B-Sides
CD2-1 - Get It - 4:46
CD2-2 - Profit Preacher - 5:58
CD2-3 - Stars & Stripes - 3:56
CD2-4 - Love - 3:03
CD2-5 - Better Than This - 3:37
CD2-6 - Three Good Riffs - 3:55
CD2-7 - Armageddon Down - 3:38
CD2-8 - RealiTV - 4:12
CD2-9 - Runnerboy - 4:48
CD2-10 - Eat The Hand That Feeds Me - 3:46
CD2-11 - Braindead - 4:19
CD2-12 - Megalomania - 3:14
CD2-13 - I Love To Hate Myself - 2:55
CD2-14 - Are You Talking To Me - 2:36
CD2-15 - Where Are You Now - 3:24
CD2-16 - Point Of No Return - 4:28
CD2-17 - All My Greatest Fears - 4:16
Deaf Dumb Blind
CD3-1 - Nigger - 3:48
CD3-2 - The Truth - 4:13
CD3-3 - Rosegrove - 4:03
CD3-4 - Don't Get Me Wrong - 3:12
CD3-5 - I Need You - 4:58
CD3-6 - Catch Me - 4:39
CD3-7 - Warfair - 3:48
CD3-8 - Wonderful World - 2:41
CD3-9 - Sad To See Your Sorrow - 5:17
CD3-10 - I Don't Care - 3:11

EAC-Log, CUE-Sheed & NFO:

Click to open spoiler
Exact Audio Copy V1.1 from 23. June 2015

EAC extraction logfile from 16. March 2017, 0:01

Clawfinger / Deaf Dumb Blind

Used drive : ASUS DRW-24B1ST Adapter: 1 ID: 1

Read mode : Secure
Utilize accurate stream : Yes
Defeat audio cache : Yes
Make use of C2 pointers : No

Read offset correction : 6
Overread into Lead-In and Lead-Out : No
Fill up missing offset samples with silence : Yes
Delete leading and trailing silent blocks : No
Null samples used in CRC calculations : Yes
Used interface : Native Win32 interface for Win NT & 2000

Used output format : User Defined Encoder
Selected bitrate : 1024 kBit/s
Quality : High
Add ID3 tag : No
Command line compressor : C:\Program Files (x86)\Exact Audio Copy\Flac\flac.exe
Additional command line options : -V -8 -T “Genre=%genre%” -T “Artist=%artist%” -T “Title=%title%” -T “Album=%albumtitle%” -T “Date=%year%” -T “Tracknumber=%tracknr%” -T “Comment=%comment%” %source%

TOC of the extracted CD

Track | Start | Length | Start sector | End sector
———————————————————
1 | 0:00.00 | 3:48.01 | 0 | 17100
2 | 3:48.01 | 4:13.40 | 17101 | 36115
3 | 8:01.41 | 4:01.50 | 36116 | 54240
4 | 12:03.16 | 3:11.72 | 54241 | 68637
5 | 15:15.13 | 4:59.14 | 68638 | 91076
6 | 20:14.27 | 4:40.67 | 91077 | 112143
7 | 24:55.19 | 3:47.36 | 112144 | 129204
8 | 28:42.55 | 2:42.66 | 129205 | 141420
9 | 31:25.46 | 5:16.19 | 141421 | 165139
10 | 36:41.65 | 3:12.46 | 165140 | 179585

Range status and errors

Selected range

Filename E:\Torrent\# MY\# Подготовка раздач\Clawfinger\2014 – Deafer Dumber Blinder – 20 Years Anniversary Box 1993-2013 (AFM Records, AFM 505-7, Germany)\CD-3 – Deaf Dumb Blind\Clawfinger – Deaf Dumb Blind.wav

Peak level 98.8 %
Extraction speed 2.8 X
Range quality 100.0 %
Test CRC 103F81BF
Copy CRC 103F81BF
Copy OK

No errors occurred

AccurateRip summary

Track 1 accurately ripped (confidence 3) [6B619CF9] (AR v2)
Track 2 accurately ripped (confidence 3) [EB9BD482] (AR v2)
Track 3 accurately ripped (confidence 3) [CAEB455C] (AR v2)
Track 4 accurately ripped (confidence 3) [7F47F8CC] (AR v2)
Track 5 accurately ripped (confidence 3) [1182B77B] (AR v2)
Track 6 accurately ripped (confidence 3) [1233B614] (AR v2)
Track 7 accurately ripped (confidence 3) [8BC170A2] (AR v2)
Track 8 accurately ripped (confidence 3) [E867D07B] (AR v2)
Track 9 accurately ripped (confidence 3) [B3EBF1D5] (AR v2)
Track 10 accurately ripped (confidence 3) [AB04CE65] (AR v2)

All tracks accurately ripped

End of status report

—- CUETools DB Plugin V2.1.6

[CTDB TOCID: 9Dx1T3a560KdbSLNVnSr4V3bm2M-] found
Submit result: 9Dx1T3a560KdbSLNVnSr4V3bm2M- has been confirmed
Track | CTDB Status
1 | (8/8) Accurately ripped
2 | (8/8) Accurately ripped
3 | (8/8) Accurately ripped
4 | (8/8) Accurately ripped
5 | (8/8) Accurately ripped
6 | (8/8) Accurately ripped
7 | (8/8) Accurately ripped
8 | (8/8) Accurately ripped
9 | (8/8) Accurately ripped
10 | (8/8) Accurately ripped

==== Log checksum B66EC0FD46D54AFB52C8C4864ECAC1F15DBDC36839228B456A55028437132DAD ====

Exact Audio Copy V1.1 from 23. June 2015

EAC extraction logfile from 15. March 2017, 22:41

Clawfinger / The Best Of Demos

Used drive : ASUS DRW-24B1ST Adapter: 1 ID: 1

Read mode : Secure
Utilize accurate stream : Yes
Defeat audio cache : Yes
Make use of C2 pointers : No

Read offset correction : 6
Overread into Lead-In and Lead-Out : No
Fill up missing offset samples with silence : Yes
Delete leading and trailing silent blocks : No
Null samples used in CRC calculations : Yes
Used interface : Native Win32 interface for Win NT & 2000

Used output format : User Defined Encoder
Selected bitrate : 1024 kBit/s
Quality : High
Add ID3 tag : No
Command line compressor : C:\Program Files (x86)\Exact Audio Copy\Flac\flac.exe
Additional command line options : -V -8 -T “Genre=%genre%” -T “Artist=%artist%” -T “Title=%title%” -T “Album=%albumtitle%” -T “Date=%year%” -T “Tracknumber=%tracknr%” -T “Comment=%comment%” %source%

TOC of the extracted CD

Track | Start | Length | Start sector | End sector
———————————————————
1 | 0:00.00 | 3:16.00 | 0 | 14699
2 | 3:16.00 | 3:52.74 | 14700 | 32173
3 | 7:08.74 | 3:23.20 | 32174 | 47418
4 | 10:32.19 | 3:13.01 | 47419 | 61894
5 | 13:45.20 | 3:16.09 | 61895 | 76603
6 | 17:01.29 | 3:36.01 | 76604 | 92804
7 | 20:37.30 | 4:12.21 | 92805 | 111725
8 | 24:49.51 | 4:11.12 | 111726 | 130562
9 | 29:00.63 | 3:54.57 | 130563 | 148169
10 | 32:55.45 | 3:25.00 | 148170 | 163544
11 | 36:20.45 | 5:03.02 | 163545 | 186271
12 | 41:23.47 | 4:20.12 | 186272 | 205783
13 | 45:43.59 | 3:17.49 | 205784 | 220607
14 | 49:01.33 | 3:38.63 | 220608 | 237020
15 | 52:40.21 | 3:31.48 | 237021 | 252893
16 | 56:11.69 | 3:51.00 | 252894 | 270218
17 | 60:02.69 | 4:04.37 | 270219 | 288555
18 | 64:07.31 | 3:45.58 | 288556 | 305488
19 | 67:53.14 | 3:21.46 | 305489 | 320609
20 | 71:14.60 | 4:02.39 | 320610 | 338798

Range status and errors

Selected range

Filename E:\Torrent\# MY\# Подготовка раздач\Clawfinger\2014 – Deafer Dumber Blinder – 20 Years Anniversary Box 1993-2013 (AFM Records, AFM 505-7, Germany)\CD-1 – The Best Of Demos\Clawfinger – The Best Of Demos.wav

Peak level 100.0 %
Extraction speed 6.6 X
Range quality 100.0 %
Test CRC 344362B7
Copy CRC 344362B7
Copy OK

No errors occurred

AccurateRip summary

Track 1 accurately ripped (confidence 3) [107E1561] (AR v2)
Track 2 accurately ripped (confidence 3) [2268349B] (AR v2)
Track 3 accurately ripped (confidence 3) [F9E36FAB] (AR v2)
Track 4 accurately ripped (confidence 3) [A1E0C881] (AR v2)
Track 5 accurately ripped (confidence 3) [DD908744] (AR v2)
Track 6 accurately ripped (confidence 3) [C23E7F09] (AR v2)
Track 7 accurately ripped (confidence 3) [A686DBD1] (AR v2)
Track 8 accurately ripped (confidence 3) [C63E2256] (AR v2)
Track 9 accurately ripped (confidence 3) [F95627F4] (AR v2)
Track 10 accurately ripped (confidence 3) [C99CA5CB] (AR v2)
Track 11 accurately ripped (confidence 3) [6BA18143] (AR v2)
Track 12 accurately ripped (confidence 3) [FEDC2DBE] (AR v2)
Track 13 accurately ripped (confidence 3) [BCA82F4D] (AR v2)
Track 14 accurately ripped (confidence 3) [4C628E6B] (AR v2)
Track 15 accurately ripped (confidence 3) [536F1871] (AR v2)
Track 16 accurately ripped (confidence 3) [712382F3] (AR v2)
Track 17 accurately ripped (confidence 3) [88C61224] (AR v2)
Track 18 accurately ripped (confidence 3) [97CD26B2] (AR v2)
Track 19 accurately ripped (confidence 3) [81496DB7] (AR v2)
Track 20 accurately ripped (confidence 3) [16DF7E6D] (AR v2)

All tracks accurately ripped

End of status report

—- CUETools DB Plugin V2.1.6

[CTDB TOCID: ZfzkEGmwk0DWxBd2lfAwTRYU_To-] found
Submit result: ZfzkEGmwk0DWxBd2lfAwTRYU_To- has been confirmed
Track | CTDB Status
1 | (10/10) Accurately ripped
2 | (10/10) Accurately ripped
3 | (10/10) Accurately ripped
4 | (10/10) Accurately ripped
5 | (10/10) Accurately ripped
6 | (10/10) Accurately ripped
7 | (10/10) Accurately ripped
8 | (10/10) Accurately ripped
9 | (10/10) Accurately ripped
10 | (10/10) Accurately ripped
11 | (10/10) Accurately ripped
12 | (10/10) Accurately ripped
13 | (10/10) Accurately ripped
14 | (10/10) Accurately ripped
15 | (10/10) Accurately ripped
16 | (10/10) Accurately ripped
17 | (10/10) Accurately ripped
18 | (10/10) Accurately ripped
19 | (10/10) Accurately ripped
20 | (10/10) Accurately ripped

==== Log checksum 55EB225A10B38F69CB9A5AF3D8E7E76ADD046E5B7E2A21F0D8E0CBEF55751837 ====

Exact Audio Copy V1.1 from 23. June 2015

EAC extraction logfile from 15. March 2017, 23:32

Clawfinger / The Best Of B-Sides

Used drive : ASUS DRW-24B1ST Adapter: 1 ID: 1

Read mode : Secure
Utilize accurate stream : Yes
Defeat audio cache : Yes
Make use of C2 pointers : No

Read offset correction : 6
Overread into Lead-In and Lead-Out : No
Fill up missing offset samples with silence : Yes
Delete leading and trailing silent blocks : No
Null samples used in CRC calculations : Yes
Used interface : Native Win32 interface for Win NT & 2000

Used output format : User Defined Encoder
Selected bitrate : 1024 kBit/s
Quality : High
Add ID3 tag : No
Command line compressor : C:\Program Files (x86)\Exact Audio Copy\Flac\flac.exe
Additional command line options : -V -8 -T “Genre=%genre%” -T “Artist=%artist%” -T “Title=%title%” -T “Album=%albumtitle%” -T “Date=%year%” -T “Tracknumber=%tracknr%” -T “Comment=%comment%” %source%

TOC of the extracted CD

Track | Start | Length | Start sector | End sector
———————————————————
1 | 0:00.00 | 4:45.60 | 0 | 21434
2 | 4:45.60 | 5:58.00 | 21435 | 48284
3 | 10:43.60 | 3:55.53 | 48285 | 65962
4 | 14:39.38 | 3:02.60 | 65963 | 79672
5 | 17:42.23 | 3:37.07 | 79673 | 95954
6 | 21:19.30 | 3:54.45 | 95955 | 113549
7 | 25:14.00 | 3:37.53 | 113550 | 129877
8 | 28:51.53 | 4:11.45 | 129878 | 148747
9 | 33:03.23 | 4:47.37 | 148748 | 170309
10 | 37:50.60 | 3:45.60 | 170310 | 187244
11 | 41:36.45 | 4:19.15 | 187245 | 206684
12 | 45:55.60 | 3:13.45 | 206685 | 221204
13 | 49:09.30 | 2:55.23 | 221205 | 234352
14 | 52:04.53 | 2:35.37 | 234353 | 246014
15 | 54:40.15 | 3:23.58 | 246015 | 261297
16 | 58:03.73 | 4:27.46 | 261298 | 281368
17 | 62:31.44 | 4:16.28 | 281369 | 300596

Range status and errors

Selected range

Filename E:\Torrent\# MY\# Подготовка раздач\Clawfinger\2014 – Deafer Dumber Blinder – 20 Years Anniversary Box 1993-2013 (AFM Records, AFM 505-7, Germany)\CD-2 – The Best Of B-Sides\Clawfinger – The Best Of B-Sides.wav

Peak level 98.8 %
Extraction speed 3.3 X
Range quality 100.0 %
Test CRC F515CA28
Copy CRC F515CA28
Copy OK

No errors occurred

AccurateRip summary

Track 1 accurately ripped (confidence 3) [F9DE04B9] (AR v2)
Track 2 accurately ripped (confidence 3) [41B2A31F] (AR v2)
Track 3 accurately ripped (confidence 3) [5187FCBF] (AR v2)
Track 4 accurately ripped (confidence 3) [728945F7] (AR v2)
Track 5 accurately ripped (confidence 3) [6CE49E20] (AR v2)
Track 6 accurately ripped (confidence 3) [1D7DDE84] (AR v2)
Track 7 accurately ripped (confidence 3) [4F1C920F] (AR v2)
Track 8 accurately ripped (confidence 3) [C4F53D05] (AR v2)
Track 9 accurately ripped (confidence 3) [81C7A303] (AR v2)
Track 10 accurately ripped (confidence 3) [7F1F8C73] (AR v2)
Track 11 accurately ripped (confidence 3) [CDFAAD7D] (AR v2)
Track 12 accurately ripped (confidence 3) [95BD3A16] (AR v2)
Track 13 accurately ripped (confidence 3) [022AE1AF] (AR v2)
Track 14 accurately ripped (confidence 3) [E4A87BF2] (AR v2)
Track 15 accurately ripped (confidence 3) [082D419C] (AR v2)
Track 16 accurately ripped (confidence 3) [15049715] (AR v2)
Track 17 accurately ripped (confidence 3) [DB3876B4] (AR v2)

All tracks accurately ripped

End of status report

—- CUETools DB Plugin V2.1.6

[CTDB TOCID: G8V2I02HUfFPnjB1zlGsVeGj3Do-] found
Submit result: G8V2I02HUfFPnjB1zlGsVeGj3Do- has been confirmed
Track | CTDB Status
1 | (10/10) Accurately ripped
2 | (10/10) Accurately ripped
3 | (10/10) Accurately ripped
4 | (10/10) Accurately ripped
5 | (10/10) Accurately ripped
6 | (10/10) Accurately ripped
7 | (10/10) Accurately ripped
8 | (10/10) Accurately ripped
9 | (10/10) Accurately ripped
10 | (10/10) Accurately ripped
11 | (10/10) Accurately ripped
12 | (10/10) Accurately ripped
13 | (10/10) Accurately ripped
14 | (10/10) Accurately ripped
15 | (10/10) Accurately ripped
16 | (10/10) Accurately ripped
17 | (10/10) Accurately ripped

==== Log checksum 4158F122A6A0D020FD023009571B1472AF17572A913EEF4EE814D4EC59DB76B3 ====

REM GENRE Alternative
REM DATE 1993
REM DISCID 81095A0A
REM COMMENT “Deafer Dumber Blinder – 20 Years Anniversary Box 1993-2013 (CD-3)”
PERFORMER “Clawfinger”
TITLE “Deaf Dumb Blind”
FILE “Clawfinger – Deaf Dumb Blind.flac” WAVE
TRACK 01 AUDIO
TITLE “Nigger”
PERFORMER “Clawfinger”
ISRC Mh4061301175
FLAGS DCP
INDEX 01 00:00:00
TRACK 02 AUDIO
TITLE “The Truth”
PERFORMER “Clawfinger”
ISRC Mh4061301176
FLAGS DCP
INDEX 01 03:48:01
TRACK 03 AUDIO
TITLE “Rosegrove”
PERFORMER “Clawfinger”
ISRC Mh4061301177
FLAGS DCP
INDEX 01 08:01:41
TRACK 04 AUDIO
TITLE “Don’t Get Me Wrong”
PERFORMER “Clawfinger”
ISRC Mh4061301178
FLAGS DCP
INDEX 01 12:03:16
TRACK 05 AUDIO
TITLE “I Need You”
PERFORMER “Clawfinger”
ISRC Mh4061301179
FLAGS DCP
INDEX 01 15:15:13
TRACK 06 AUDIO
TITLE “Catch Me”
PERFORMER “Clawfinger”
ISRC Mh4061301180
FLAGS DCP
INDEX 01 20:14:27
TRACK 07 AUDIO
TITLE “Warfair”
PERFORMER “Clawfinger”
ISRC Mh4061301181
FLAGS DCP
INDEX 01 24:55:19
TRACK 08 AUDIO
TITLE “Wonderful World”
PERFORMER “Clawfinger”
ISRC Mh4061301182
FLAGS DCP
INDEX 01 28:42:55
TRACK 09 AUDIO
TITLE “Sad To See Your Sorrow”
PERFORMER “Clawfinger”
ISRC Mh4061301182
FLAGS DCP
INDEX 01 31:25:46
TRACK 10 AUDIO
TITLE “I Don’t Care”
PERFORMER “Clawfinger”
ISRC Mh4061301184
FLAGS DCP
INDEX 01 36:41:65

REM GENRE Alternative
REM DATE 2014
REM DISCID 2C11A514
REM COMMENT “Deafer Dumber Blinder – 20 Years Anniversary Box 1993-2013 (CD-1)”
PERFORMER “Clawfinger”
TITLE “The Best Of Demos”
FILE “Clawfinger – The Best Of Demos.flac” WAVE
TRACK 01 AUDIO
TITLE “PMRC”
PERFORMER “Clawfinger”
ISRC Mh4061301124
INDEX 01 00:00:00
TRACK 02 AUDIO
TITLE “Money Is”
PERFORMER “Clawfinger”
ISRC Mh4061301125
INDEX 01 03:16:00
TRACK 03 AUDIO
TITLE “If You Don’t Know Me”
PERFORMER “Clawfinger”
ISRC Mh4061301126
INDEX 01 07:08:74
TRACK 04 AUDIO
TITLE “Tell Me What You Want From Me”
PERFORMER “Clawfinger”
ISRC Mh4061301127
INDEX 01 10:32:19
TRACK 05 AUDIO
TITLE “You Gave Me Something To Think About”
PERFORMER “Clawfinger”
ISRC Mh4061301128
INDEX 01 13:45:20
TRACK 06 AUDIO
TITLE “Here We Go Again”
PERFORMER “Clawfinger”
ISRC Mh4061301128
INDEX 01 17:01:29
TRACK 07 AUDIO
TITLE “The Choice Is Yours”
PERFORMER “Clawfinger”
ISRC Mh4061301130
INDEX 01 20:37:30
TRACK 08 AUDIO
TITLE “Master Of Celebrity”
PERFORMER “Clawfinger”
ISRC Mh4061301131
INDEX 01 24:49:51
TRACK 09 AUDIO
TITLE “I Don’t Know”
PERFORMER “Clawfinger”
ISRC Mh4061301132
INDEX 01 29:00:63
TRACK 10 AUDIO
TITLE “Ain’t No Turning Back”
PERFORMER “Clawfinger”
ISRC Mh4061301132
INDEX 01 32:55:45
TRACK 11 AUDIO
TITLE “Are You Man Enough”
PERFORMER “Clawfinger”
ISRC Mh4061301134
INDEX 01 36:20:45
TRACK 12 AUDIO
TITLE “Fear Itself”
PERFORMER “Clawfinger”
ISRC Mh4061301135
INDEX 01 41:23:47
TRACK 13 AUDIO
TITLE “Take What You Can Get”
PERFORMER “Clawfinger”
ISRC Mh4061301135
INDEX 01 45:43:59
TRACK 14 AUDIO
TITLE “In A Mad World”
PERFORMER “Clawfinger”
ISRC Mh4061301137
INDEX 01 49:01:33
TRACK 15 AUDIO
TITLE “My Dirty Mind”
PERFORMER “Clawfinger”
ISRC Mh4061301137
INDEX 01 52:40:21
TRACK 16 AUDIO
TITLE “When Everything Crumbles (Alt. demo)”
PERFORMER “Clawfinger”
ISRC Mh4061301139
INDEX 01 56:11:69
TRACK 17 AUDIO
TITLE “Still Don’t Know”
PERFORMER “Clawfinger”
ISRC Mh4061301140
INDEX 01 60:02:69
TRACK 18 AUDIO
TITLE “Turn It Off”
PERFORMER “Clawfinger”
ISRC Mh4061301141
INDEX 01 64:07:31
TRACK 19 AUDIO
TITLE “All The Way”
PERFORMER “Clawfinger”
ISRC Mh4061301141
INDEX 01 67:53:14
TRACK 20 AUDIO
TITLE “Back To The Basics”
PERFORMER “Clawfinger”
ISRC Mh4061301143
INDEX 01 71:14:60

REM GENRE Alternative
REM DATE 2014
REM DISCID 080FA711
REM COMMENT “Deafer Dumber Blinder – 20 Years Anniversary Box 1993-2013 (CD-2)”
PERFORMER “Clawfinger”
TITLE “The Best Of B-Sides”
FILE “Clawfinger – The Best Of B-Sides.flac” WAVE
TRACK 01 AUDIO
TITLE “Get It”
PERFORMER “Clawfinger”
ISRC Mh4061301143
INDEX 01 00:00:00
TRACK 02 AUDIO
TITLE “Profit Preacher”
PERFORMER “Clawfinger”
ISRC Mh4061301144
INDEX 01 04:45:60
TRACK 03 AUDIO
TITLE “Stars & Stripes”
PERFORMER “Clawfinger”
ISRC Mh4061301145
INDEX 01 10:43:60
TRACK 04 AUDIO
TITLE “Love”
PERFORMER “Clawfinger”
ISRC Mh4061301146
INDEX 01 14:39:38
TRACK 05 AUDIO
TITLE “Better Than This”
PERFORMER “Clawfinger”
ISRC Mh4061301146
INDEX 01 17:42:23
TRACK 06 AUDIO
TITLE “Three Good Riffs”
PERFORMER “Clawfinger”
ISRC Mh4061301148
INDEX 01 21:19:30
TRACK 07 AUDIO
TITLE “Armageddon Down”
PERFORMER “Clawfinger”
ISRC Mh4061301149
INDEX 01 25:14:00
TRACK 08 AUDIO
TITLE “RealiTV”
PERFORMER “Clawfinger”
ISRC Mh4061301150
INDEX 01 28:51:53
TRACK 09 AUDIO
TITLE “Runnerboy”
PERFORMER “Clawfinger”
ISRC Mh4061301151
INDEX 01 33:03:23
TRACK 10 AUDIO
TITLE “Eat The Hand That Feeds Me”
PERFORMER “Clawfinger”
ISRC Mh4061301152
INDEX 01 37:50:60
TRACK 11 AUDIO
TITLE “Braindead”
PERFORMER “Clawfinger”
ISRC Mh4061301153
INDEX 01 41:36:45
TRACK 12 AUDIO
TITLE “Megalomania”
PERFORMER “Clawfinger”
ISRC Mh4061301154
INDEX 01 45:55:60
TRACK 13 AUDIO
TITLE “I Love To Hate Myself”
PERFORMER “Clawfinger”
ISRC Mh4061301155
INDEX 01 49:09:30
TRACK 14 AUDIO
TITLE “Are You Talking To Me”
PERFORMER “Clawfinger”
ISRC Mh4061301156
INDEX 01 52:04:53
TRACK 15 AUDIO
TITLE “Where Are You Now”
PERFORMER “Clawfinger”
ISRC Mh4061301157
INDEX 01 54:40:15
TRACK 16 AUDIO
TITLE “Point Of No Return”
PERFORMER “Clawfinger”
ISRC Mh4061301158
INDEX 01 58:03:73
TRACK 17 AUDIO
TITLE “All My Greatest Fears”
PERFORMER “Clawfinger”
ISRC Mh4061301159
INDEX 01 62:31:44

Leave a Reply

Your email address will not be published. Required fields are marked *

This site uses Akismet to reduce spam. Learn how your comment data is processed.