Clawfinger – Life Will Kill You




No Cover available

Artist: Clawfinger
Year: 2007
Genre: Rock
Notes: Discogs
Add. Notes:
Watch Songs on: YouTube
Cover incl.: Yes
Encoder: FLAC
Bitrate: ~1000 kBit/s (44.1 kHz/16 Bit/s)
Log & Cue incl.: Yes
Size: 353,7 MB
Password: “slam” (without ” “)


All Downloads/Hosters are compatible

Download 1
KatFile.com
Turbobit.net
FileFactory.com
Rapidgator.net
Download 2
KatFile.com
Turbobit.net
FileFactory.com
Rapidgator.net

Tracklist:

1 - The Price We Pay - 3:34
2 - Life Will Kill You - 3:34
3 - Prisoners - 3:52
4 - Final Stand - 4:39
5 - None The Wiser - 4:38
6 - Little Baby - 3:36
7 - The Cure & The Poison - 5:53
8 - Where Can We Go From Here ? - 4:05
9 - It's Your Life - 3:28
10 - Falling - 3:39
11 - Carnivore - 3:12

EAC-Log, CUE-Sheed & NFO:

Click to open spoiler
Exact Audio Copy V1.1 from 23. June 2015

EAC extraction logfile from 15. March 2017, 21:56

Clawfinger / Life Will Kill You

Used drive : ASUS DRW-24B1ST Adapter: 1 ID: 1

Read mode : Secure
Utilize accurate stream : Yes
Defeat audio cache : Yes
Make use of C2 pointers : No

Read offset correction : 6
Overread into Lead-In and Lead-Out : No
Fill up missing offset samples with silence : Yes
Delete leading and trailing silent blocks : No
Null samples used in CRC calculations : Yes
Used interface : Native Win32 interface for Win NT & 2000

Used output format : User Defined Encoder
Selected bitrate : 1024 kBit/s
Quality : High
Add ID3 tag : No
Command line compressor : C:\Program Files (x86)\Exact Audio Copy\Flac\flac.exe
Additional command line options : -V -8 -T “Date=%year%” -T “Genre=%genre%” %source%

TOC of the extracted CD

Track | Start | Length | Start sector | End sector
———————————————————
1 | 0:00.00 | 3:34.10 | 0 | 16059
2 | 3:34.10 | 3:34.11 | 16060 | 32120
3 | 7:08.21 | 3:52.39 | 32121 | 49559
4 | 11:00.60 | 4:39.58 | 49560 | 70542
5 | 15:40.43 | 4:38.37 | 70543 | 91429
6 | 20:19.05 | 3:46.51 | 91430 | 108430
7 | 24:05.56 | 5:53.08 | 108431 | 134913
8 | 29:58.64 | 4:05.21 | 134914 | 153309
9 | 34:04.10 | 3:28.52 | 153310 | 168961
10 | 37:32.62 | 3:39.44 | 168962 | 185430
11 | 41:12.31 | 3:13.27 | 185431 | 199932

Range status and errors

Selected range

Filename E:\Torrent\# MY\# Подготовка раздач\Clawfinger\2007 – Life Will Kill You (Nuclear Blast, 27361 18992, Germany)\Clawfinger – Life Will Kill You.wav

Peak level 100.0 %
Extraction speed 5.3 X
Range quality 100.0 %
Test CRC 1E361259
Copy CRC 1E361259
Copy OK

No errors occurred

AccurateRip summary

Track 1 accurately ripped (confidence 7) [633119CB] (AR v2)
Track 2 accurately ripped (confidence 7) [1AB859E3] (AR v2)
Track 3 accurately ripped (confidence 7) [F19B2C22] (AR v2)
Track 4 accurately ripped (confidence 7) [9E740BFB] (AR v2)
Track 5 accurately ripped (confidence 7) [160BAB6A] (AR v2)
Track 6 accurately ripped (confidence 7) [2F262358] (AR v2)
Track 7 accurately ripped (confidence 7) [88FB2265] (AR v2)
Track 8 accurately ripped (confidence 7) [52DC3533] (AR v2)
Track 9 accurately ripped (confidence 7) [A30ED181] (AR v2)
Track 10 accurately ripped (confidence 7) [F82D472F] (AR v2)
Track 11 accurately ripped (confidence 7) [2F987DC9] (AR v2)

All tracks accurately ripped

End of status report

—- CUETools DB Plugin V2.1.6

[CTDB TOCID: S3C7mKObg8DrAkfeqF0nZ1Rqbn4-] found
Submit result: S3C7mKObg8DrAkfeqF0nZ1Rqbn4- has been confirmed
Track | CTDB Status
1 | (13/13) Accurately ripped
2 | (13/13) Accurately ripped
3 | (13/13) Accurately ripped
4 | (13/13) Accurately ripped
5 | (13/13) Accurately ripped
6 | (13/13) Accurately ripped
7 | (13/13) Accurately ripped
8 | (13/13) Accurately ripped
9 | (13/13) Accurately ripped
10 | (13/13) Accurately ripped
11 | (12/13) Accurately ripped

==== Log checksum 80847141131299274936E46C73A7741734E85A5CF2836445CA0BF16EE079ADE8 ====

REM GENRE Alternative
REM DATE 2007
REM DISCID 780A690B
REM COMMENT “ExactAudioCopy v1.1”
PERFORMER “Clawfinger”
TITLE “Life Will Kill You”
FILE “Clawfinger – Life Will Kill You.flac” WAVE
TRACK 01 AUDIO
TITLE “The Price We Pay”
PERFORMER “Clawfinger”
INDEX 01 00:00:00
TRACK 02 AUDIO
TITLE “Life Will Kill You”
PERFORMER “Clawfinger”
INDEX 01 03:34:10
TRACK 03 AUDIO
TITLE “Prisoners”
PERFORMER “Clawfinger”
INDEX 01 07:08:21
TRACK 04 AUDIO
TITLE “Final Stand”
PERFORMER “Clawfinger”
INDEX 01 11:00:60
TRACK 05 AUDIO
TITLE “None The Wiser”
PERFORMER “Clawfinger”
INDEX 01 15:40:43
TRACK 06 AUDIO
TITLE “Little Baby”
PERFORMER “Clawfinger”
INDEX 01 20:19:05
TRACK 07 AUDIO
TITLE “The Cure & The Poison”
PERFORMER “Clawfinger”
INDEX 01 24:05:56
TRACK 08 AUDIO
TITLE “Where Can We Go From Here?”
PERFORMER “Clawfinger”
INDEX 01 29:58:64
TRACK 09 AUDIO
TITLE “It’s Your Life”
PERFORMER “Clawfinger”
INDEX 01 34:04:10
TRACK 10 AUDIO
TITLE “Falling”
PERFORMER “Clawfinger”
INDEX 01 37:32:62
TRACK 11 AUDIO
TITLE “Carnivore”
PERFORMER “Clawfinger”
INDEX 01 41:12:31


Leave a Reply

Your email address will not be published. Required fields are marked *

This site uses Akismet to reduce spam. Learn how your comment data is processed.