Clawfinger – Hate Yourself With Style (Limited Edition)




Artist: Clawfinger
Year: 2005
Genre: Metal
Notes: Discogs
Add. Notes: Limited Edition
Cover incl.: Yes
Encoder: FLAC
Bitrate: ~1000 kBit/s (44.1 kHz/16 Bit/s)
Log & Cue incl.: Yes
Size: 353,97 MB
Password: “slam” (without ” “)


All Downloads/Hosters are compatible

Download 1
Turbobit.net
Rapidgator.net
UploadByte.com
UploadEver.com
JustUpload.io
Download 2
Turbobit.net
Rapidgator.net
UploadByte.com
UploadEver.com
JustUpload.io
Download 3
Turbobit.net
Rapidgator.net
UploadByte.com
UploadEver.com
JustUpload.io

Tracklist:

CD-1 - The Faggot In You - 3:26
CD-2 - Hate Yourself With Style - 3:44
CD-3 - Dirty Lies - 2:59
CD-4 - The Best & The Worst - 3:48
CD-5 - Breakout (Embrace The Child Inside You) - 3:42
CD-6 - Right To Rape - 4:31
CD-7 - What We've Got Is What You're Getting - 2:23
CD-8 - Sick Of Myself - 3:22
CD-9 - Hypocrite - 3:04
CD-10 - Without A Case - 3:40
CD-11 - God Is Dead - 4:44

EAC-Log, CUE-Sheed & NFO:

Click to open spoiler
Exact Audio Copy V1.1 from 23. June 2015

EAC extraction logfile from 16. March 2017, 0:56

Clawfinger / Hate Yourself With Style

Used drive : TSSTcorpDVD-ROM SH-118CB Adapter: 1 ID: 0

Read mode : Secure
Utilize accurate stream : Yes
Defeat audio cache : Yes
Make use of C2 pointers : No

Read offset correction : 6
Overread into Lead-In and Lead-Out : No
Fill up missing offset samples with silence : Yes
Delete leading and trailing silent blocks : No
Null samples used in CRC calculations : Yes
Used interface : Native Win32 interface for Win NT & 2000

Used output format : Internal WAV Routines
Sample format : 44.100 Hz; 16 Bit; Stereo

TOC of the extracted CD

Track | Start | Length | Start sector | End sector
———————————————————
1 | 0:44.15 | 3:26.04 | 3315 | 18768
2 | 4:10.19 | 3:44.01 | 18769 | 35569
3 | 7:54.20 | 2:58.65 | 35570 | 48984
4 | 10:53.10 | 3:48.14 | 48985 | 66098
5 | 14:41.24 | 3:41.60 | 66099 | 82733
6 | 18:23.09 | 4:31.00 | 82734 | 103058
7 | 22:54.09 | 2:22.43 | 103059 | 113751
8 | 25:16.52 | 3:22.05 | 113752 | 128906
9 | 28:38.57 | 3:04.22 | 128907 | 142728
10 | 31:43.04 | 3:40.00 | 142729 | 159228
11 | 35:23.04 | 4:44.28 | 159229 | 180556

Range status and errors

Selected range (Sectors 0-180556)

Filename E:\Torrent\# MY\# Подготовка раздач\Clawfinger\2005 – Hate Yourself With Style (Deluxe) (Nuclear Blast, 27361 15505, Germany)\Clawfinger – Hate Yourself With Style.wav

Peak level 98.8 %
Extraction speed 0.9 X
Range quality 100.0 %
Copy CRC D2741D7D
Copy OK

No errors occurred

AccurateRip summary

Track 1 accurately ripped (confidence 21) [836E3F65] (AR v2)
Track 2 accurately ripped (confidence 22) [850766E2] (AR v2)
Track 3 accurately ripped (confidence 22) [18A49269] (AR v2)
Track 4 accurately ripped (confidence 22) [C4985736] (AR v2)
Track 5 accurately ripped (confidence 22) [7C591BF0] (AR v2)
Track 6 accurately ripped (confidence 22) [49903C10] (AR v2)
Track 7 accurately ripped (confidence 22) [D588ADF7] (AR v2)
Track 8 accurately ripped (confidence 22) [71D594BE] (AR v2)
Track 9 accurately ripped (confidence 22) [EB579308] (AR v2)
Track 10 accurately ripped (confidence 22) [C973F84C] (AR v2)
Track 11 accurately ripped (confidence 21) [8BA8EA2A] (AR v2)

All tracks accurately ripped

End of status report

—- CUETools DB Plugin V2.1.6

[CTDB TOCID: F2NUkriToY9ohyoUnLAbIvyATMw-] found
Submit result: already submitted
Track | CTDB Status
1 | (35/35) Accurately ripped
2 | (35/35) Accurately ripped
3 | (35/35) Accurately ripped
4 | (35/35) Accurately ripped
5 | (35/35) Accurately ripped
6 | (35/35) Accurately ripped
7 | (35/35) Accurately ripped
8 | (35/35) Accurately ripped
9 | (35/35) Accurately ripped
10 | (35/35) Accurately ripped
11 | (35/35) Accurately ripped

==== Log checksum 593A076BD2E7DB69BA90463985E038DF4EE41D6E57520F933352A403372A32DF ====

————————————————————

Exact Audio Copy V1.1 from 23. June 2015

EAC extraction logfile from 16. March 2017, 6:20

Clawfinger / Hate Yourself With Style

Used drive : TSSTcorpDVD-ROM SH-118CB Adapter: 1 ID: 0

Read mode : Secure
Utilize accurate stream : Yes
Defeat audio cache : Yes
Make use of C2 pointers : No

Read offset correction : 6
Overread into Lead-In and Lead-Out : No
Fill up missing offset samples with silence : Yes
Delete leading and trailing silent blocks : No
Null samples used in CRC calculations : Yes
Used interface : Native Win32 interface for Win NT & 2000

Used output format : User Defined Encoder
Selected bitrate : 1024 kBit/s
Quality : High
Add ID3 tag : No
Command line compressor : C:\Program Files (x86)\Exact Audio Copy\Flac\flac.exe
Additional command line options : -V -8 -T “Genre=%genre%” -T “Artist=%artist%” -T “Title=%title%” -T “Album=%albumtitle%” -T “Date=%year%” -T “Tracknumber=%tracknr%” -T “Comment=%comment%” %source%

TOC of the extracted CD

Track | Start | Length | Start sector | End sector
———————————————————
1 | 0:44.15 | 3:26.04 | 3315 | 18768
2 | 4:10.19 | 3:44.01 | 18769 | 35569
3 | 7:54.20 | 2:58.65 | 35570 | 48984
4 | 10:53.10 | 3:48.14 | 48985 | 66098
5 | 14:41.24 | 3:41.60 | 66099 | 82733
6 | 18:23.09 | 4:31.00 | 82734 | 103058
7 | 22:54.09 | 2:22.43 | 103059 | 113751
8 | 25:16.52 | 3:22.05 | 113752 | 128906
9 | 28:38.57 | 3:04.22 | 128907 | 142728
10 | 31:43.04 | 3:40.00 | 142729 | 159228
11 | 35:23.04 | 4:44.28 | 159229 | 180556

Range status and errors

Selected range (Sectors 0-180556)

Filename E:\Torrent\# MY\# Подготовка раздач\Clawfinger\2005 – Hate Yourself With Style (Deluxe) (Nuclear Blast, 27361 15505, Germany)\Clawfinger – Hate Yourself With Style.wav

Peak level 98.8 %
Extraction speed 0.9 X
Range quality 100.0 %
Copy CRC D2741D7D
Copy OK

No errors occurred

AccurateRip summary

Track 1 accurately ripped (confidence 21) [836E3F65] (AR v2)
Track 2 accurately ripped (confidence 22) [850766E2] (AR v2)
Track 3 accurately ripped (confidence 22) [18A49269] (AR v2)
Track 4 accurately ripped (confidence 22) [C4985736] (AR v2)
Track 5 accurately ripped (confidence 22) [7C591BF0] (AR v2)
Track 6 accurately ripped (confidence 22) [49903C10] (AR v2)
Track 7 accurately ripped (confidence 22) [D588ADF7] (AR v2)
Track 8 accurately ripped (confidence 22) [71D594BE] (AR v2)
Track 9 accurately ripped (confidence 22) [EB579308] (AR v2)
Track 10 accurately ripped (confidence 22) [C973F84C] (AR v2)
Track 11 accurately ripped (confidence 21) [8BA8EA2A] (AR v2)

All tracks accurately ripped

End of status report

—- CUETools DB Plugin V2.1.6

[CTDB TOCID: F2NUkriToY9ohyoUnLAbIvyATMw-] found
Submit result: already submitted
Track | CTDB Status
1 | (35/35) Accurately ripped
2 | (35/35) Accurately ripped
3 | (35/35) Accurately ripped
4 | (35/35) Accurately ripped
5 | (35/35) Accurately ripped
6 | (35/35) Accurately ripped
7 | (35/35) Accurately ripped
8 | (35/35) Accurately ripped
9 | (35/35) Accurately ripped
10 | (35/35) Accurately ripped
11 | (35/35) Accurately ripped

==== Log checksum 714F10E5CE4C3699A97AFFBC6234162326B8B4460B8F32756A991E04BB144F26 ====

REM GENRE Alternative
REM DATE 2005
REM DISCID 91093B0B
REM COMMENT “ExactAudioCopy v1.1”
PERFORMER “Clawfinger”
TITLE “Hate Yourself With Style”
FILE “Clawfinger – Hate Yourself With Style.flac” WAVE
TRACK 01 AUDIO
TITLE “The Faggot In You”
PERFORMER “Clawfinger”
ISRC DED830586401
INDEX 00 00:00:00
INDEX 01 00:44:15
TRACK 02 AUDIO
TITLE “Hate Yourself With Style”
PERFORMER “Clawfinger”
ISRC DED830586402
INDEX 01 04:10:19
TRACK 03 AUDIO
TITLE “Dirty Lies”
PERFORMER “Clawfinger”
ISRC DED830586403
INDEX 01 07:54:20
TRACK 04 AUDIO
TITLE “The Best & The Worst”
PERFORMER “Clawfinger”
ISRC DED830586404
INDEX 01 10:53:10
TRACK 05 AUDIO
TITLE “Breakout (Embrace The Child Inside You)”
PERFORMER “Clawfinger”
ISRC DED830586405
INDEX 01 14:41:24
TRACK 06 AUDIO
TITLE “Right To Rape”
PERFORMER “Clawfinger”
ISRC DED830586406
INDEX 01 18:23:09
TRACK 07 AUDIO
TITLE “What We’ve Got Is What You’re Getting”
PERFORMER “Clawfinger”
ISRC DED830586407
INDEX 01 22:54:09
TRACK 08 AUDIO
TITLE “Sick Of Myself”
PERFORMER “Clawfinger”
ISRC DED830586408
INDEX 01 25:16:52
TRACK 09 AUDIO
TITLE “Hypocrite”
PERFORMER “Clawfinger”
ISRC DED830586409
INDEX 01 28:38:57
TRACK 10 AUDIO
TITLE “Without A Case”
PERFORMER “Clawfinger”
ISRC DED830586410
INDEX 01 31:43:04
TRACK 11 AUDIO
TITLE “God Is Dead”
PERFORMER “Clawfinger”
ISRC DED830586411
INDEX 01 35:23:04

Leave a Reply

Your email address will not be published. Required fields are marked *

This site uses Akismet to reduce spam. Learn how your comment data is processed.