Clawfinger – Deaf Dumb Blind




Artist: Clawfinger
Year: 1993
Genre: Rock
Notes: Discogs
Add. Notes:
Encoder: FLAC
Bitrate: ~1000 kBit/s (44.1 kHz/16 Bit/s)
Bin/Cue incl.: Yes
Size: 322,29 MB
Password: “slam” (without ” “)


http://www.share-online.biz/dl/ZD1EKRRP01RB
https://rapidgator.net/file/a690281be622c4211d56269b11e9a361
https://uploadbyte.com/nlx7hio4891i
https://uploadever.com/0w4kpgkxgyua

Tracklist:

1 - Nigger - 3:47
2 - The Truth - 4:12
3 - Rosegrove - 4:02
4 - Don't Get Me Wrong - 3:12
5 - I Need You - 4:58
6 - Catch Me - 4:39
7 - Warfair - 3:48
8 - Wonderful World - 2:40
9 - Sad To See Your Sorrow - 5:18
10 - I Don't Care - 3:11

EAC-Log, CUE-Sheed & NFO:

Click to open spoiler
Exact Audio Copy V1.1 from 23. June 2015

EAC extraction logfile from 12. March 2017, 14:48

Clawfinger / Deaf Dumb Blind

Used drive : HP DVD Writer 550r Adapter: 1 ID: 2

Read mode : Secure
Utilize accurate stream : Yes
Defeat audio cache : Yes
Make use of C2 pointers : No

Read offset correction : 6
Overread into Lead-In and Lead-Out : No
Fill up missing offset samples with silence : Yes
Delete leading and trailing silent blocks : No
Null samples used in CRC calculations : Yes
Used interface : Native Win32 interface for Win NT & 2000

Used output format : User Defined Encoder
Selected bitrate : 1024 kBit/s
Quality : High
Add ID3 tag : No
Command line compressor : C:\Program Files (x86)\Exact Audio Copy\Flac\flac.exe
Additional command line options : -V -8 -T “Date=%year%” -T “Genre=%genre%” %source%

TOC of the extracted CD

Track | Start | Length | Start sector | End sector
———————————————————
1 | 0:00.00 | 3:47.45 | 0 | 17069
2 | 3:47.45 | 4:12.50 | 17070 | 36019
3 | 8:00.20 | 4:03.17 | 36020 | 54261
4 | 12:03.37 | 3:11.63 | 54262 | 68649
5 | 15:15.25 | 4:58.12 | 68650 | 91011
6 | 20:13.37 | 4:39.23 | 91012 | 111959
7 | 24:52.60 | 3:48.20 | 111960 | 129079
8 | 28:41.05 | 2:41.15 | 129080 | 141169
9 | 31:22.20 | 5:17.05 | 141170 | 164949
10 | 36:39.25 | 3:11.22 | 164950 | 179296

Range status and errors

Selected range

Filename E:\Torrent\# MY\# ?????????? ??????\Clawfinger\1993 – Deaf Dumb Blind (WEA, MVG Records, 4509-93245-2, Germany)\Clawfinger – Deaf Dumb Blind.wav

Peak level 100.0 %
Extraction speed 3.0 X
Range quality 99.9 %
Test CRC 5EC5AC6E
Copy CRC 5EC5AC6E
Copy OK

No errors occurred

AccurateRip summary

Track 1 accurately ripped (confidence 200) [8346332A] (AR v2)
Track 2 accurately ripped (confidence 200) [EF93ED44] (AR v2)
Track 3 accurately ripped (confidence 200) [31F4A111] (AR v2)
Track 4 accurately ripped (confidence 200) [FD7B5562] (AR v2)
Track 5 accurately ripped (confidence 200) [F6C277A4] (AR v2)
Track 6 accurately ripped (confidence 200) [10D2F09E] (AR v2)
Track 7 accurately ripped (confidence 200) [DAA1BC1A] (AR v2)
Track 8 accurately ripped (confidence 200) [E80D9AFE] (AR v2)
Track 9 accurately ripped (confidence 200) [A527E87C] (AR v2)
Track 10 accurately ripped (confidence 200) [32F32604] (AR v2)

All tracks accurately ripped

End of status report

—- CUETools DB Plugin V2.1.6

[CTDB TOCID: f7OLGaVcP2D0X7C7F8OuaEwXvA4-] found
Submit result: f7OLGaVcP2D0X7C7F8OuaEwXvA4- has been confirmed
Track | CTDB Status
1 | (612/622) Accurately ripped
2 | (614/622) Accurately ripped
3 | (591/622) Accurately ripped
4 | (613/622) Accurately ripped
5 | (614/622) Accurately ripped
6 | (614/622) Accurately ripped
7 | (536/622) Accurately ripped, or (6/622) differs in 9 samples @03:47:72, or (11/622) differs in 11 samples @03:47:71-03:47:72, or (4/622) differs in 9 samples @03:47:71-03:47:72, or (2/622) differs in 11 samples @03:47:71-03:47:72, or (10/622) differs in 19 samples @03:47:72, or (5/622) differs in 12 samples @03:47:71-03:47:72, or (2/622) differs in 12 samples @03:47:71-03:47:72, or (2/622) differs in 12 samples @03:47:71-03:47:72, or (4/622) differs in 10 samples @03:47:71-03:47:72, or (4/622) differs in 10 samples @03:47:71-03:47:72, or (2/622) differs in 11 samples @03:47:71-03:47:72, or (3/622) differs in 10 samples @03:47:72
8 | (614/622) Accurately ripped
9 | (609/622) Accurately ripped
10 | (609/622) Accurately ripped

==== Log checksum D4AF75AB946B61984DD57F08F88E9243B14438335B2F5B974EE6B6F8800232C3 ====

REM GENRE Alternative
REM DATE 1993
REM DISCID 7E09560A
REM COMMENT “ExactAudioCopy v1.1”
CATALOG 4509932450205
PERFORMER “Clawfinger”
TITLE “Deaf Dumb Blind”
FILE “Clawfinger – Deaf Dumb Blind.flac” WAVE
TRACK 01 AUDIO
TITLE “Nigger”
PERFORMER “Clawfinger”
INDEX 01 00:00:00
TRACK 02 AUDIO
TITLE “The Truth”
PERFORMER “Clawfinger”
INDEX 01 03:47:45
TRACK 03 AUDIO
TITLE “Rosegrove”
PERFORMER “Clawfinger”
INDEX 01 08:00:20
TRACK 04 AUDIO
TITLE “Don’t Get Me Wrong”
PERFORMER “Clawfinger”
INDEX 01 12:03:37
TRACK 05 AUDIO
TITLE “I Need You”
PERFORMER “Clawfinger”
INDEX 01 15:15:25
TRACK 06 AUDIO
TITLE “Catch Me”
PERFORMER “Clawfinger”
INDEX 01 20:13:37
TRACK 07 AUDIO
TITLE “Warfair”
PERFORMER “Clawfinger”
INDEX 01 24:52:60
TRACK 08 AUDIO
TITLE “Wonderful World”
PERFORMER “Clawfinger”
INDEX 01 28:41:05
TRACK 09 AUDIO
TITLE “Sad To See Your Sorrow”
PERFORMER “Clawfinger”
INDEX 01 31:22:20
TRACK 10 AUDIO
TITLE “I Don’t Care”
PERFORMER “Clawfinger”
INDEX 01 36:39:25

Leave a Reply

Your email address will not be published. Required fields are marked *

This site uses Akismet to reduce spam. Learn how your comment data is processed.