Clawfinger – Clawfinger




Artist: Clawfinger
Year: 1997
Genre: Metal
Notes: Discogs
Add. Notes:
Encoder: FLAC
Bitrate: ~1000 kBit/s (44.1 kHz/16 Bit/s)
Bin/Cue incl.: Yes
Size: 333,81 MB
Password: “slam” (without ” “)


http://www.share-online.biz/dl/97T2LTRPHMJQ
https://rapidgator.net/file/f4e7bb3eb2e7614f3fb2c0daf6e0cd1c
https://uploadbyte.com/vtwu1rj3tg4w
https://justupload.io/mw28ahi1vaqm
https://uploadever.com/f32v9l26h0kw

Tracklist:

1 - Two Sides - 4:05
2 - Hold Your Head Up - 3:26
3 - Biggest & The Best - 3:51
4 - Chances - 2:58
5 - Don't Wake Me Up - 4:10
6 - Not Even You - 2:46
7 - Nobody Knows - 3:12
8 - I Can See Them Coming - 3:39
9 - Wrong State Of Mind - 3:51
10 - I'm Your Life & Religion - 3:56
11 - Crazy - 2:47
12 - I Guess I'll Never Know - 4:51

EAC-Log, CUE-Sheed & NFO:

Click to open spoiler
Exact Audio Copy V1.1 from 23. June 2015

EAC extraction logfile from 12. March 2017, 18:33

Clawfinger / Clawfinger

Used drive : ASUS DRW-24B1ST Adapter: 1 ID: 1

Read mode : Secure
Utilize accurate stream : Yes
Defeat audio cache : Yes
Make use of C2 pointers : No

Read offset correction : 6
Overread into Lead-In and Lead-Out : No
Fill up missing offset samples with silence : Yes
Delete leading and trailing silent blocks : No
Null samples used in CRC calculations : Yes
Used interface : Native Win32 interface for Win NT & 2000

Used output format : User Defined Encoder
Selected bitrate : 1024 kBit/s
Quality : High
Add ID3 tag : No
Command line compressor : C:\Program Files (x86)\Exact Audio Copy\Flac\flac.exe
Additional command line options : -V -8 -T “Date=%year%” -T “Genre=%genre%” %source%

TOC of the extracted CD

Track | Start | Length | Start sector | End sector
———————————————————
1 | 0:00.00 | 4:05.42 | 0 | 18416
2 | 4:05.42 | 3:28.65 | 18417 | 34081
3 | 7:34.32 | 3:51.55 | 34082 | 51461
4 | 11:26.12 | 2:56.35 | 51462 | 64696
5 | 14:22.47 | 4:10.18 | 64697 | 83464
6 | 18:32.65 | 2:46.30 | 83465 | 95944
7 | 21:19.20 | 3:11.07 | 95945 | 110276
8 | 24:30.27 | 3:39.53 | 110277 | 126754
9 | 28:10.05 | 3:47.00 | 126755 | 143779
10 | 31:57.05 | 3:53.25 | 143780 | 161279
11 | 35:50.30 | 2:47.60 | 161280 | 173864
12 | 38:38.15 | 4:50.50 | 173865 | 195664
13 | 46:00.65 | 3:52.15 | 207065 | 224479

Range status and errors

Selected range

Filename E:\Torrent\# MY\# Подготовка раздач\Clawfinger\1997 – Clawfinger (MVG Records, 3984-20177-2, Germany)\Clawfinger – Clawfinger.wav

Peak level 100.0 %
Extraction speed 5.1 X
Range quality 99.9 %
Test CRC C9F12BBD
Copy CRC C9F12BBD
Copy OK

No errors occurred

AccurateRip summary

Track 1 accurately ripped (confidence 42) [E4FA15B2] (AR v2)
Track 2 accurately ripped (confidence 41) [48C52245] (AR v2)
Track 3 accurately ripped (confidence 40) [DBCB3C15] (AR v2)
Track 4 accurately ripped (confidence 41) [89A2D292] (AR v2)
Track 5 accurately ripped (confidence 41) [34C39CC8] (AR v2)
Track 6 accurately ripped (confidence 41) [58C5EE17] (AR v2)
Track 7 accurately ripped (confidence 41) [3A8C31BF] (AR v2)
Track 8 accurately ripped (confidence 41) [1D6D0F6D] (AR v2)
Track 9 accurately ripped (confidence 41) [8A969557] (AR v2)
Track 10 accurately ripped (confidence 41) [BB00ED11] (AR v2)
Track 11 accurately ripped (confidence 41) [6A6D4F71] (AR v2)
Track 12 accurately ripped (confidence 41) [42ED358D] (AR v2)

All tracks accurately ripped

End of status report

—- CUETools DB Plugin V2.1.6

[CTDB TOCID: x94Yy4AqY4ldgVZVN3IXz.OsGpw-] found
Submit result: x94Yy4AqY4ldgVZVN3IXz.OsGpw- has been confirmed
Track | CTDB Status
1 | (157/168) Accurately ripped, or (1/168) differs in 2 samples @02:11:56,02:16:31
2 | (159/168) Accurately ripped, or (1/168) differs in 1 samples @02:37:51
3 | (157/168) Accurately ripped, or (1/168) differs in 2 samples @02:02:57,02:48:63
4 | (160/168) Accurately ripped, or (1/168) differs in 1 samples @02:16:59
5 | (161/168) Accurately ripped
6 | (157/168) Accurately ripped, or (1/168) differs in 1 samples @00:42:36
7 | (161/168) Accurately ripped, or (1/168) differs in 1 samples @01:49:29
8 | (151/168) Accurately ripped, or (1/168) differs in 1 samples @00:50:55, or (2/168) differs in 2 samples @00:51:73, or (2/168) differs in 2 samples @00:51:73
9 | (160/168) Accurately ripped, or (1/168) differs in 1 samples @00:00:00
10 | (161/168) Accurately ripped
11 | (160/168) Accurately ripped, or (1/168) differs in 3 samples @00:29:26,01:30:25,01:43:60
12 | (162/168) Accurately ripped, or (1/168) differs in 3479 samples @03:36:50,04:50:29-04:50:35

==== Log checksum 5C26D95992388F4626EBD1FC4BE004BB5102C73E29EE7FC2793313725BCEB648 ====

REM GENRE Alternative
REM DATE 1997
REM DISCID AF0BB10D
REM COMMENT “ExactAudioCopy v1.1”
PERFORMER “Clawfinger”
TITLE “Clawfinger”
FILE “Clawfinger – Clawfinger.flac” WAVE
TRACK 01 AUDIO
TITLE “Two Sides”
PERFORMER “Clawfinger”
ISRC SELBD9707010
INDEX 01 00:00:00
TRACK 02 AUDIO
TITLE “Hold Your Head Up”
PERFORMER “Clawfinger”
ISRC SELBD9707020
INDEX 01 04:05:42
TRACK 03 AUDIO
TITLE “Biggest & The Best”
PERFORMER “Clawfinger”
ISRC SELBD9707030
INDEX 01 07:34:32
TRACK 04 AUDIO
TITLE “Chances”
PERFORMER “Clawfinger”
ISRC SELBD9707040
INDEX 01 11:26:12
TRACK 05 AUDIO
TITLE “Don’t Wake Me Up”
PERFORMER “Clawfinger”
ISRC SELBD9707050
INDEX 01 14:22:47
TRACK 06 AUDIO
TITLE “Not Even You”
PERFORMER “Clawfinger”
ISRC SELBD9707060
INDEX 01 18:32:65
TRACK 07 AUDIO
TITLE “Nobody Knows”
PERFORMER “Clawfinger”
ISRC SELBD9707070
INDEX 01 21:19:20
TRACK 08 AUDIO
TITLE “I Can See Them Coming”
PERFORMER “Clawfinger”
ISRC SELBD9707080
INDEX 01 24:30:27
TRACK 09 AUDIO
TITLE “Wrong State Of Mind”
PERFORMER “Clawfinger”
ISRC SELBD9707090
INDEX 01 28:10:05
TRACK 10 AUDIO
TITLE “I’m Your Life & Religion”
PERFORMER “Clawfinger”
ISRC SELBD9707100
INDEX 01 31:57:05
TRACK 11 AUDIO
TITLE “Crazy”
PERFORMER “Clawfinger”
ISRC SELBD9707110
INDEX 01 35:50:30
TRACK 12 AUDIO
TITLE “I Guess I’ll Never Know”
PERFORMER “Clawfinger”
ISRC SELBD9707120
INDEX 00 38:36:30
INDEX 01 38:38:15

Leave a Reply

Your email address will not be published. Required fields are marked *

Enter the text from the image below
 

This site uses Akismet to reduce spam. Learn how your comment data is processed.