Clawfinger – A Whole Lot Of Nothing




Artist: Clawfinger
Year: 2001
Genre: Metal
Notes: Discogs
Add. Notes:
Encoder: FLAC
Bitrate: ~1100 kBit/s (44.1 kHz/16 Bit/s)
Bin/Cue incl.: Yes
Size: 400,24 MB
Password: “slam” (without ” “)


http://www.share-online.biz/dl/VHYPDVRPBOQM

https://rapidgator.net/file/1648ad2003ae132c107887ef67ccc597

https://uploadbyte.com/oejr1ules1bc

https://uploadever.com/kex3gmi6fzwh

https://justupload.io/au2yoy0fskws

Tracklist:

1 - Two Steps Away - 3:42
2 - Out To Get Me - 3:44
3 - Nothing Going On - 3:20
4 - Are You Man Enough - 3:35
5 - Confrontation - 3:33
6 - Evolution - 4:17
7 - Don't Look At Me - 3:32
8 - Simon Says - 4:01
9 - Burn In Hell - 3:23
10 - I Close My Eyes - 3:09
11 - Paradise - 3:39
12 - Revenge - 4:02
13 - Vienna - 4:14

EAC-Log, CUE-Sheed & NFO:

Click to open spoiler
Exact Audio Copy V1.1 from 23. June 2015

EAC extraction logfile from 12. March 2017, 20:12

Clawfinger / A Whole Lot Of Nothing

Used drive : ASUS DRW-24B1ST Adapter: 1 ID: 1

Read mode : Secure
Utilize accurate stream : Yes
Defeat audio cache : Yes
Make use of C2 pointers : No

Read offset correction : 6
Overread into Lead-In and Lead-Out : No
Fill up missing offset samples with silence : Yes
Delete leading and trailing silent blocks : No
Null samples used in CRC calculations : Yes
Used interface : Native Win32 interface for Win NT & 2000

Used output format : User Defined Encoder
Selected bitrate : 1024 kBit/s
Quality : High
Add ID3 tag : No
Command line compressor : C:\Program Files (x86)\Exact Audio Copy\Flac\flac.exe
Additional command line options : -V -8 -T “Date=%year%” -T “Genre=%genre%” %source%

TOC of the extracted CD

Track | Start | Length | Start sector | End sector
———————————————————
1 | 0:00.00 | 3:42.04 | 0 | 16653
2 | 3:42.04 | 3:44.32 | 16654 | 33485
3 | 7:26.36 | 3:20.48 | 33486 | 48533
4 | 10:47.09 | 3:35.00 | 48534 | 64658
5 | 14:22.09 | 3:33.66 | 64659 | 80699
6 | 17:56.00 | 4:17.13 | 80700 | 99987
7 | 22:13.13 | 3:32.16 | 99988 | 115903
8 | 25:45.29 | 4:01.31 | 115904 | 134009
9 | 29:46.60 | 3:23.08 | 134010 | 149242
10 | 33:09.68 | 3:09.37 | 149243 | 163454
11 | 36:19.30 | 3:39.11 | 163455 | 179890
12 | 39:58.41 | 4:02.57 | 179891 | 198097
13 | 44:01.23 | 4:14.48 | 198098 | 217195

Range status and errors

Selected range

Filename E:\Torrent\# MY\# Подготовка раздач\Clawfinger\2001 – A Whole Lot Of Nothing (GUN, 74321 87033 2, E.U.)\Clawfinger – A Whole Lot Of Nothing.wav

Peak level 98.9 %
Extraction speed 4.1 X
Range quality 100.0 %
Test CRC 6DA4FC45
Copy CRC 6DA4FC45
Copy OK

No errors occurred

AccurateRip summary

Track 1 accurately ripped (confidence 38) [10682EE3] (AR v2)
Track 2 accurately ripped (confidence 37) [656522C2] (AR v2)
Track 3 accurately ripped (confidence 38) [3D41A540] (AR v2)
Track 4 accurately ripped (confidence 38) [B355EB03] (AR v2)
Track 5 accurately ripped (confidence 38) [11736ECB] (AR v2)
Track 6 accurately ripped (confidence 38) [9E09B141] (AR v2)
Track 7 accurately ripped (confidence 38) [3968C161] (AR v2)
Track 8 accurately ripped (confidence 38) [9C989561] (AR v2)
Track 9 accurately ripped (confidence 38) [86862846] (AR v2)
Track 10 accurately ripped (confidence 38) [47A2394E] (AR v2)
Track 11 accurately ripped (confidence 38) [31DFB950] (AR v2)
Track 12 accurately ripped (confidence 38) [CE330129] (AR v2)
Track 13 accurately ripped (confidence 38) [7BC50D85] (AR v2)

All tracks accurately ripped

End of status report

—- CUETools DB Plugin V2.1.6

[CTDB TOCID: Pjt8KLgnqRrx7zyB.GUF_eiTrJs-] found
Submit result: Pjt8KLgnqRrx7zyB.GUF_eiTrJs- has been confirmed
Track | CTDB Status
1 | (78/80) Accurately ripped
2 | (78/80) Accurately ripped
3 | (78/80) Accurately ripped
4 | (78/80) Accurately ripped
5 | (78/80) Accurately ripped
6 | (78/80) Accurately ripped
7 | (79/80) Accurately ripped
8 | (78/80) Accurately ripped
9 | (79/80) Accurately ripped
10 | (78/80) Accurately ripped
11 | (79/80) Accurately ripped
12 | (78/80) Accurately ripped
13 | (77/80) Accurately ripped

==== Log checksum 1CA19BFD50A62CC62C9977D7B92B759D5CDAA7481FF740BB513F5FB6F3611FA3 ====

REM GENRE Alternative
REM DATE 2001
REM DISCID B90B4F0D
REM COMMENT “ExactAudioCopy v1.1”
CATALOG 0000000000000
PERFORMER “Clawfinger”
TITLE “A Whole Lot Of Nothing”
FILE “Clawfinger – A Whole Lot Of Nothing.flac” WAVE
TRACK 01 AUDIO
TITLE “Two Steps Away”
PERFORMER “Clawfinger”
ISRC DEAo60100143
INDEX 01 00:00:00
TRACK 02 AUDIO
TITLE “Out To Get Me”
PERFORMER “Clawfinger”
ISRC DEAn80100825
INDEX 00 03:40:54
INDEX 01 03:42:04
TRACK 03 AUDIO
TITLE “Nothing Going On”
PERFORMER “Clawfinger”
ISRC DEAo60100144
INDEX 00 07:25:11
INDEX 01 07:26:36
TRACK 04 AUDIO
TITLE “Are You Man Enough”
PERFORMER “Clawfinger”
ISRC DEAo60100145
INDEX 01 10:47:09
TRACK 05 AUDIO
TITLE “Confrontation”
PERFORMER “Clawfinger”
ISRC DEAo60100146
INDEX 01 14:22:09
TRACK 06 AUDIO
TITLE “Evolution”
PERFORMER “Clawfinger”
ISRC DEAo60100147
INDEX 01 17:56:00
TRACK 07 AUDIO
TITLE “Don’t Look At Me”
PERFORMER “Clawfinger”
ISRC DEAo60100148
INDEX 01 22:13:13
TRACK 08 AUDIO
TITLE “Simon Says”
PERFORMER “Clawfinger”
ISRC DEAo60100149
INDEX 01 25:45:29
TRACK 09 AUDIO
TITLE “Burn In Hell”
PERFORMER “Clawfinger”
ISRC DEAn80100826
INDEX 01 29:46:60
TRACK 10 AUDIO
TITLE “I Close My Eyes”
PERFORMER “Clawfinger”
ISRC DEAo60100150
INDEX 01 33:09:68
TRACK 11 AUDIO
TITLE “Paradise”
PERFORMER “Clawfinger”
ISRC DEAo60100151
INDEX 01 36:19:30
TRACK 12 AUDIO
TITLE “Revenge”
PERFORMER “Clawfinger”
ISRC DEAo60100152
INDEX 01 39:58:41
TRACK 13 AUDIO
TITLE “Vienna”
PERFORMER “Clawfinger”
ISRC DEAo60100153
INDEX 01 44:01:23

Leave a Reply

Your email address will not be published. Required fields are marked *

This site uses Akismet to reduce spam. Learn how your comment data is processed.